<?xml version="1.0" standalone="no"?>
<!DOCTYPE svg PUBLIC "-//W3C//DTD SVG 1.1//EN" "http://www.w3.org/Graphics/SVG/1.1/DTD/svg11.dtd" >
<svg>
<metadata>
Created by FontForge 20090914 at Thu Jan 17 09:10:33 2019
 By www-data
Copyright 1990-2001 Bitstream Inc. All rights reserved.
</metadata>
<defs>
<font id="BruceOldStyleBT-Roman" horiz-adv-x="1024" >
  <font-face 
    font-family="BruceOldStyle BT"
    font-weight="400"
    font-stretch="normal"
    units-per-em="2048"
    panose-1="2 4 6 3 6 5 5 2 2 3"
    ascent="1556"
    descent="-492"
    x-height="923.999"
    cap-height="1446"
    bbox="-342 -483 2462 1947"
    underline-thickness="121"
    underline-position="-145"
    unicode-range="U+0020-U+F002"
  />
<missing-glyph horiz-adv-x="1229" 
d="M102 -362v1806h1024v-1806h-1024zM217 -248h795v1577h-795v-1577z" />
    <glyph glyph-name=".notdef" horiz-adv-x="1229" 
d="M102 -362v1806h1024v-1806h-1024zM217 -248h795v1577h-795v-1577z" />
    <glyph glyph-name="space" unicode=" " horiz-adv-x="627" 
 />
    <glyph glyph-name="exclam" unicode="!" horiz-adv-x="729" 
d="M465 1231l-75.998 -856h-49l-76 856c-0.666992 7.33301 -1.33398 17 -2.00098 29c-4 41.333 -6 69 -6 83c0 45.333 9.16699 79.333 27.5 102s45.5 34 81.5 34c35.333 0 62.166 -11.5 80.499 -34.5s27.5 -56.833 27.5 -101.5c0 -7.33301 -1 -24 -3 -50
s-3.66699 -46.667 -5 -62zM238.002 100c0 34.667 12.5 64.5 37.5 89.5s54.833 37.5 89.5 37.5s64.5 -12.167 89.5 -36.5s37.5 -54.5 37.5 -90.5c0 -34.667 -12.333 -64.167 -37 -88.5s-54.667 -36.5 -90 -36.5c-36 0 -66.167 12.167 -90.5 36.5s-36.5 53.833 -36.5 88.5z
" />
    <glyph glyph-name="quotedbl" unicode="&#x22;" horiz-adv-x="678" 
d="M518 864l-31.001 -0.000976562l-65 457c0 1.33301 -0.333008 3.33301 -1 6c-2 14.667 -3 25.667 -3 33c0 32.667 7.5 57.834 22.5 75.501s36.167 26.5 63.5 26.5c26.667 0 47.334 -8.66699 62.001 -26s22 -42 22 -74c0 -9.33301 -0.166992 -17 -0.5 -23
s-0.833008 -12 -1.5 -18zM189.999 863.999l-32.001 -0.000976562l-64 457l-3 26c-0.666992 6 -1 11 -1 15c0 32 7.33301 56.667 22 74s35.334 26 62.001 26c27.333 0 48.5 -8.66699 63.5 -26s22.5 -42 22.5 -74c0 -6 -1 -17.333 -3 -34
c-0.666992 -3.33301 -1 -5.66602 -1 -6.99902z" />
    <glyph glyph-name="numbersign" unicode="#" horiz-adv-x="1575" 
d="M700 868l-100 -286h289l102 286h-291zM778 1456h133l-168 -471h287l168 471h131l-166 -471h307l-40 -117h-310l-100 -286h332l-43 -115h-330l-166 -469h-133l166 469h-287l-166 -469h-131l166 469h-324l43 115h322l100 286h-348l43 117h348z" />
    <glyph glyph-name="dollar" unicode="$" horiz-adv-x="1251" 
d="M758 82c57.333 18 102 47.832 134 89.499s48 90.834 48 147.501c0 55.333 -15.167 104.333 -45.5 147s-75.833 80 -136.5 112v-496zM494 914.999v448.999c-53.333 -17.333 -94 -45.166 -122 -83.499s-42 -84.833 -42 -139.5c0 -51.333 13 -95 39 -131
s67.667 -67.667 125 -95zM551 882.998l72 -32l77 -36v567c-14 2.66699 -27.167 4.5 -39.5 5.5s-24.833 1.5 -37.5 1.5c-12 0 -24 -0.666992 -36 -2s-24 -3 -36 -5v-499zM551 67.998c12 -2.66699 23.667 -4.49902 35 -5.49902s23 -1.5 35 -1.5c14.667 0 28.5 0.666992 41.5 2
s25.5 3.66602 37.5 6.99902v532l-22 11c-58 26 -100.333 45.667 -127 59v-604zM494 -182.001l-0.00195312 195.998c-103.333 28 -188.333 76 -255 144s-100 137 -100 207c0 30.667 8 56 24 76s36 30 60 30c34 0 59 -14.667 75 -44s28.667 -91 38 -185
c4 -42.667 18.5 -76.5 43.5 -101.5s63.167 -43.833 114.5 -56.5v616c-102 44 -176.333 95 -223 153s-70 128 -70 210c0 87.333 25 162.333 75 225s122.667 110 218 142v151h57v-141c16 2 31.167 3.5 45.5 4.5s28.5 1.5 42.5 1.5c6.66699 0 14.5 -0.333008 23.5 -1
s21.5 -1.66699 37.5 -3v139h58v-145c99.333 -28 181.166 -72.667 245.499 -134s96.5 -122.666 96.5 -183.999c0 -26 -7.16699 -46.5 -21.5 -61.5s-33.833 -22.5 -58.5 -22.5c-53.333 0 -91.666 57 -114.999 171c-4 22 -7.33301 38.667 -10 50
c-5.33301 25.333 -19.666 47.833 -42.999 67.5s-54.666 36.167 -93.999 49.5v-584c123.333 -53.333 211.833 -111.666 265.5 -174.999s80.5 -140.666 80.5 -231.999s-29.167 -168.333 -87.5 -231s-144.5 -109.334 -258.5 -140.001v-192h-58v188l-68 -3
c-15.333 -0.666992 -29.333 -1 -42 -1h-39v-184h-57z" />
    <glyph glyph-name="percent" unicode="%" horiz-adv-x="1692" 
d="M706 1313c-24 4.66699 -47.8359 13.166 -71.5029 25.499s-47.167 28.833 -70.5 49.5c-34 -2 -66.833 -15.167 -98.5 -39.5s-63.167 -60.166 -94.5 -107.499c-41.333 -61.333 -74.666 -127.5 -99.999 -198.5s-38 -131.833 -38 -182.5c0 -47.333 13.167 -85 39.5 -113
s61.833 -42 106.5 -42c38.667 0 77.5 13.333 116.5 40s77.167 66.334 114.5 119.001c36.667 51.333 64.334 105.666 83.001 162.999s28 115.666 28 174.999c0 26 -1.16699 47.333 -3.5 64s-6.16602 32.334 -11.499 47.001zM378.997 -33.001l773.998 1381
c-41.333 -25.333 -81.666 -44 -120.999 -56s-79 -18 -119 -18c-25.333 0 -49.833 1.5 -73.5 4.5s-47.5 7.5 -71.5 13.5c4 -18.667 7 -36.667 9 -54s3 -34.666 3 -51.999c0 -58 -9.66699 -116 -29 -174s-48.333 -116 -87 -174c-46 -68.667 -96.5 -120.667 -151.5 -156
s-112.5 -53 -172.5 -53c-78.667 0 -143.334 27.167 -194.001 81.5s-76 124.166 -76 209.499c0 60 13.167 122 39.5 186s63.5 124 111.5 180c46 54 97.333 95.833 154 125.5s113.334 44.5 170.001 44.5c36 0 67.667 -5.33301 95 -16s52.333 -27 75 -49
c19.333 -22 44.333 -38.167 75 -48.5s68.334 -15.5 113.001 -15.5c64 0 125.167 13.333 183.5 40s107.833 64 148.5 112h92l-846 -1512h-102zM1569 542.999c0 57.333 -13.668 102.668 -41.001 136.001s-64.333 50 -111 50c-33.333 0 -66.5 -12 -99.5 -36
s-65.833 -60.333 -98.5 -109c-41.333 -61.333 -74.666 -127.833 -99.999 -199.5s-38 -132.834 -38 -183.501c0 -48 12.833 -86 38.5 -114s60.834 -42 105.501 -42c40.667 0 80.667 13.333 120 40s75.666 64.667 108.999 114c36 54 64.167 111.5 84.5 172.5
s30.5 118.167 30.5 171.5zM1392.99 797.001c73.333 0 131.167 -22.5 173.5 -67.5s63.5 -106.5 63.5 -184.5c0 -60.667 -10.167 -121.834 -30.5 -183.501s-50.5 -122.834 -90.5 -183.501c-46 -68.667 -96.5 -121 -151.5 -157s-112.167 -54 -171.5 -54
c-78.667 0 -143.5 27.5 -194.5 82.5s-76.5 125.167 -76.5 210.5c0 60.667 13.167 122.834 39.5 186.501s63.833 123.834 112.5 180.501c46 53.333 97.5 95 154.5 125s114.167 45 171.5 45z" />
    <glyph glyph-name="ampersand" unicode="&#x26;" horiz-adv-x="1524" 
d="M631 989c47.333 37.333 82.998 78.667 106.998 124s36 94.333 36 147c0 48.667 -14.167 88 -42.5 118s-65.166 45 -110.499 45c-47.333 0 -85.166 -13.667 -113.499 -41s-42.5 -64 -42.5 -110c0 -39.333 12.5 -80.5 37.5 -123.5s67.833 -96.167 128.5 -159.5z
M884.998 162.001c-55.333 72 -118.834 186.333 -190.501 343s-127.167 267.667 -166.5 333c-72.667 -44.667 -126.667 -94.667 -162 -150s-53 -118 -53 -188c0 -120 34.333 -223.5 103 -310.5s148.334 -130.5 239.001 -130.5c40 0 78.833 8.5 116.5 25.5
s75.5 42.833 113.5 77.5zM919.997 117.001c-60 -48.667 -122.83 -85.501 -188.497 -110.501s-132.167 -37.5 -199.5 -37.5c-118.667 0 -216.834 37.167 -294.501 111.5s-116.5 167.5 -116.5 279.5c0 96 31.5 186.833 94.5 272.5s158.5 167.834 286.5 246.501l-48 72
c-81.333 120 -122 212 -122 276c0 70.667 28 130.334 84 179.001s126.333 73 211 73c78 0 140.167 -19.167 186.5 -57.5s69.5 -89.5 69.5 -153.5c0 -52.667 -17.833 -104.834 -53.5 -156.501s-91.5 -106.834 -167.5 -165.501c43.333 -62 99.833 -166.167 169.5 -312.5
s129.167 -255.166 178.5 -326.499c53.333 78 95.666 156.333 126.999 235s47 144.334 47 197.001c0 53.333 -14.167 93.333 -42.5 120s-70.833 40 -127.5 40h-19v55h449v-55c-51.333 -4 -90 -16.5 -116 -37.5s-52.333 -72.5 -79 -154.5
c-32 -102 -63.833 -187.333 -95.5 -256s-68.167 -132.334 -109.5 -191.001c40 -64.667 83.333 -114.334 130 -149.001s94.334 -52 143.001 -52c22.667 0 45.5 3.83301 68.5 11.5s46.5 18.834 70.5 33.501l23 -53c-48.667 -28 -93.834 -48.667 -135.501 -62
s-81.834 -20 -120.501 -20c-60.667 0 -115.5 12 -164.5 36s-95.167 61.333 -138.5 112z" />
    <glyph glyph-name="quotesingle" unicode="'" horiz-adv-x="348" 
d="M190 864l-31.999 0.000976562l-66 457c-0.666992 5.33301 -1.16699 10.666 -1.5 15.999s-0.5 13 -0.5 23c0 33.333 7.16699 58.666 21.5 75.999s35.166 26 62.499 26s48.5 -8.66699 63.5 -26s22.5 -42 22.5 -74c0 -6 -1 -17.333 -3 -34
c-0.666992 -3.33301 -1 -5.66602 -1 -6.99902z" />
    <glyph glyph-name="parenleft" unicode="(" horiz-adv-x="688" 
d="M606 -233l-28.002 -43c-159.333 100 -278.166 222.667 -356.499 368s-117.5 315.333 -117.5 510c0 193.333 39.333 362.666 118 507.999s197.334 268.333 356.001 369l28 -43c-116.667 -83.333 -202.167 -191.5 -256.5 -324.5s-81.5 -302.833 -81.5 -509.5
s27 -376.167 81 -508.5s139.667 -241.166 257 -326.499z" />
    <glyph glyph-name="parenright" unicode=")" horiz-adv-x="688" 
d="M80 -233c118 85.333 204.167 194.331 258.5 326.998s81.5 302 81.5 508c0 204.667 -27.333 373.834 -82 507.501s-140.667 242.5 -258 326.5l31 43c158.667 -100.667 277.167 -223.667 355.5 -369s117.5 -314.666 117.5 -507.999c0 -194 -39.333 -363.833 -118 -509.5
s-197 -268.5 -355 -368.5z" />
    <glyph glyph-name="asterisk" unicode="*" 
d="M526 1036l0.00390625 -13.999c0 -48 12.667 -102.667 38 -164s38 -102.333 38 -123c0 -25.333 -8.33301 -46 -25 -62s-38.334 -24 -65.001 -24c-28.667 0 -51.167 7.83301 -67.5 23.5s-24.5 37.167 -24.5 64.5c0 18 12.333 56.333 37 115s37 113.334 37 164.001v24
c-54 -32 -98 -71.667 -132 -119l-4 -6v0c-52 -70.667 -97 -106 -135 -106c-24 0 -44.667 9 -62 27s-26 39.667 -26 65c0 31.333 11.833 55.166 35.5 71.499s61.834 26.833 114.501 31.5c46.667 3.33301 85.167 9.83301 115.5 19.5s55.833 23.5 76.5 41.5
c-48 34.667 -116.667 55.334 -206 62.001c-9.33301 0.666992 -16.333 1 -21 1c-34.667 3.33301 -62.5 14 -83.5 32s-31.5 40.333 -31.5 67c0 25.333 8.66699 47.333 26 66s38 28 62 28c37.333 0 76 -28.333 116 -85c7.33301 -10 13 -18 17 -24
c18.667 -25.333 39.667 -48 63 -68s49.666 -37.333 78.999 -52v10c0 52.667 -13 109.667 -39 171s-39 100 -39 116c0 26.667 8.33301 48.334 25 65.001s39 25 67 25c29.333 0 51.666 -7.33301 66.999 -22s23 -36 23 -64c0 -18 -12.333 -57.333 -37 -118
s-37 -116.334 -37 -167.001v-21c36.667 24 64.5 45 83.5 63s37.167 39 54.5 63l9 12c44.667 62.667 86.667 94 126 94c21.333 0 41 -9.66699 59 -29s27 -40.333 27 -63c0 -24 -10.333 -45.5 -31 -64.5s-45 -29.5 -73 -31.5l-4 -1c-113.333 -10 -191.333 -32.333 -234 -67
c50.667 -32.667 119.667 -52.667 207 -60c10 -0.666992 17.667 -1.33398 23 -2.00098c33.333 -2.66699 60.333 -13.5 81 -32.5s31 -42.833 31 -71.5c0 -22.667 -9.5 -43.334 -28.5 -62.001s-39.5 -28 -61.5 -28c-36.667 0 -77.334 31.667 -122.001 95c-4 6 -7 10.333 -9 13
c-19.333 28 -40.333 51.833 -63 71.5s-48.334 36.167 -77.001 49.5z" />
    <glyph glyph-name="plus" unicode="+" horiz-adv-x="1706" 
d="M795 1221h118v-551h539v-117h-539v-553h-118v553h-541v117h541v551z" />
    <glyph glyph-name="comma" unicode="," horiz-adv-x="627" 
d="M178 -336l-28.002 30.998c54.667 48.667 95.834 93 123.501 133s41.5 74.667 41.5 104c0 12.667 -2.16699 22.834 -6.5 30.501s-11.5 14.834 -21.5 21.501l-20 11c-54 32 -81 70 -81 114c0 31.333 10.833 57.833 32.5 79.5s47.834 32.5 78.501 32.5
c40.667 0 73.667 -14.5 99 -43.5s38 -67.167 38 -114.5c0 -66.667 -22.667 -135.667 -68 -207s-108 -135.333 -188 -192z" />
    <glyph glyph-name="hyphen" unicode="-" horiz-adv-x="688" 
d="M96 408v161h496v-161h-496z" />
    <glyph glyph-name="period" unicode="." horiz-adv-x="627" 
d="M186 100c0 34.667 12.667 64.5 38 89.5s55 37.5 89 37.5c35.333 0 65 -12.167 89 -36.5s36 -54.5 36 -90.5c0 -34.667 -11.833 -64.167 -35.5 -88.5s-53.5 -36.5 -89.5 -36.5c-35.333 0 -65.333 12.167 -90 36.5s-37 53.833 -37 88.5z" />
    <glyph glyph-name="slash" unicode="/" horiz-adv-x="569" 
d="M6 -190h-117l611 1669h118z" />
    <glyph glyph-name="zero" unicode="0" horiz-adv-x="1251" 
d="M623 -33c-70 0 -133.67 14.667 -191.003 44s-110.666 74 -159.999 134c-54.667 69.333 -97.667 155 -129 257s-47 209 -47 321c0 113.333 15.833 221.333 47.5 324s74.5 188 128.5 256c48 60 100.5 104.333 157.5 133s121.5 43 193.5 43
c71.333 0 135.5 -14.333 192.5 -43s109.5 -73 157.5 -133c54 -67.333 96.5 -152.333 127.5 -255s46.5 -211 46.5 -325s-15.5 -222 -46.5 -324s-73.5 -186.667 -127.5 -254c-49.333 -60 -102.666 -104.667 -159.999 -134s-120.666 -44 -189.999 -44zM312.997 672
c0 -234.667 23.8311 -400.833 71.498 -498.5s127.167 -146.5 238.5 -146.5c110.667 0 189.834 48.333 237.501 145s71.5 261.334 71.5 494.001c0 274 -24.167 469 -72.5 585s-127.166 174 -236.499 174s-188.333 -58.333 -237 -175s-73 -309.334 -73 -578.001z" />
    <glyph glyph-name="one" unicode="1" horiz-adv-x="1251" 
d="M350 0l-0.000976562 57.001h51c58 0 97.833 12.333 119.5 37s32.5 72 32.5 142v845c0 39.333 -5.5 67.666 -16.5 84.999s-28.833 26 -53.5 26c-20 0 -65.667 -13.333 -137 -40l-14 -5l-23 45c66 46 129.333 92.833 190 140.5s118.334 96.5 173.001 146.5h65v-1243
c0 -76 10.167 -124.833 30.5 -146.5s58.833 -32.5 115.5 -32.5h49v-57h-582z" />
    <glyph glyph-name="two" unicode="2" horiz-adv-x="1251" 
d="M139 0l0.00292969 73.999c236 228 408.333 424.333 517 589s163 311 163 439c0 91.333 -21.333 162.333 -64 213s-103.334 76 -182.001 76c-80 0 -151 -29.167 -213 -87.5s-105.667 -137.166 -131 -236.499l-69 10c23.333 123.333 77.833 221.166 163.5 293.499
s189.5 108.5 311.5 108.5c113.333 0 207.833 -36.5 283.5 -109.5s113.5 -164.167 113.5 -273.5c0 -167.333 -228.333 -469.666 -685 -906.999l-25 -25h411c67.333 0 118.666 11.833 153.999 35.5s70.666 69.167 105.999 136.5l56 -14l-78 -322h-832z" />
    <glyph glyph-name="three" unicode="3" horiz-adv-x="1251" 
d="M399 739l0.00195312 58.002c129.333 41.333 228 95 296 161s102 140.667 102 224c0 60.667 -16.5 108.834 -49.5 144.501s-77.5 53.5 -133.5 53.5c-48 0 -97.5 -15 -148.5 -45s-105.167 -76.333 -162.5 -139l-43 39c75.333 83.333 149.333 144.833 222 184.5
s148.334 59.5 227.001 59.5c82 0 149.833 -23.667 203.5 -71s80.5 -107 80.5 -179c0 -68.667 -28.833 -133.834 -86.5 -195.501s-144.834 -120.834 -261.501 -177.501c125.333 -18 221.833 -63.333 289.5 -136s101.5 -167.334 101.5 -284.001
c0 -51.333 -11.167 -103.666 -33.5 -156.999s-53.5 -102 -93.5 -146c-48 -53.333 -105.167 -94.333 -171.5 -123s-136.833 -43 -211.5 -43c-61.333 0 -119 9.83301 -173 29.5s-103.333 48.834 -148 87.501c-34.667 29.333 -61.834 60.666 -81.501 93.999s-29.5 64 -29.5 92
c0 26 7.83301 47.5 23.5 64.5s34.5 25.5 56.5 25.5c47.333 0 94.666 -60 141.999 -180l14 -35c15.333 -36 42.5 -65.333 81.5 -88s82.167 -34 129.5 -34c86.667 0 158.167 31.667 214.5 95s84.5 144.666 84.5 243.999c0 123.333 -37 217 -111 281s-181.667 96 -323 96h-7z
" />
    <glyph glyph-name="four" unicode="4" horiz-adv-x="1251" 
d="M700 516v729l-489 -729h489zM500 0v57h49c54.667 0 93.5 12.333 116.5 37s34.5 67 34.5 127v176h-589v84l661 989h113v-954h297v-119h-297v-176c0 -64 10.667 -107.333 32 -130s59 -34 113 -34h55v-57h-585z" />
    <glyph glyph-name="five" unicode="5" horiz-adv-x="1251" 
d="M274 795l57.9961 650.999h413c68.667 0 117.834 6.66699 147.501 20s55.167 36.666 76.5 69.999h67l-104 -254h-541l-29 -295c218.667 -11.333 385.334 -60.166 500.001 -146.499s172 -206.166 172 -359.499c0 -150 -47.5 -273.167 -142.5 -369.5
s-217.5 -144.5 -367.5 -144.5c-106.667 0 -197.5 22.667 -272.5 68s-112.5 98 -112.5 158c0 28 7.66699 50 23 66s36.333 24 63 24c20.667 0 40 -7 58 -21s43 -44 75 -90c4.66699 -6 10.334 -14 17.001 -24c56.667 -80.667 120 -121 190 -121
c82.667 0 150.834 34.833 204.501 104.5s80.5 159.5 80.5 269.5c0 136 -42.5 235.667 -127.5 299s-218.5 95 -400.5 95h-48z" />
    <glyph glyph-name="six" unicode="6" horiz-adv-x="1251" 
d="M428 870c-20.667 -30.667 -36.834 -77.332 -48.501 -139.999s-17.5 -135.334 -17.5 -218.001c0 -160 23.667 -282.333 71 -367s115.333 -127 204 -127c91.333 0 159.833 41.333 205.5 124s68.5 206 68.5 370c0 135.333 -24.167 238.5 -72.5 309.5
s-118.166 106.5 -209.499 106.5c-39.333 0 -75.833 -4.83301 -109.5 -14.5s-64.167 -24.167 -91.5 -43.5zM449 946.002c32 14 64.333 24.334 97 31.001s65.667 10 99 10c144.667 0 261 -45.667 349 -137s132 -212.333 132 -363s-46 -275 -138 -373s-208.333 -147 -349 -147
c-144 0 -259.5 55.333 -346.5 166s-130.5 259 -130.5 445c0 222.667 70.5 412 211.5 568s342.833 267 605.5 333l14 -56c-136 -46 -250 -109.333 -342 -190s-159.333 -176.334 -202 -287.001z" />
    <glyph glyph-name="seven" unicode="7" horiz-adv-x="1251" 
d="M942 1282h-400.998c-86 0 -150.167 -12.5 -192.5 -37.5s-79.833 -70.5 -112.5 -136.5h-60l148 440h57c2 -38.667 13.5 -65.334 34.5 -80.001s60.833 -22 119.5 -22h530v-62c-88 -152.667 -163.333 -310 -226 -472s-113 -330 -151 -504
c-10.667 -52 -22.334 -118.167 -35.001 -198.5s-22.667 -133.166 -30 -158.499c-8.66699 -26.667 -22.334 -47.334 -41.001 -62.001s-40.667 -22 -66 -22c-32.667 0 -58.167 11.167 -76.5 33.5s-27.5 53.5 -27.5 93.5c0 96.667 44.167 243.834 132.5 441.501
s220.833 446.5 397.5 746.5z" />
    <glyph glyph-name="eight" unicode="8" horiz-adv-x="1251" 
d="M698 848c60.667 36 107.666 80.667 140.999 134s50 110.333 50 171c0 78.667 -22.833 142.667 -68.5 192s-104.167 74 -175.5 74c-69.333 0 -125.166 -20.5 -167.499 -61.5s-63.5 -94.833 -63.5 -161.5c0 -70 22.333 -132.5 67 -187.5s117 -108.5 217 -160.5z
M577.999 694c-93.333 -54.667 -160.834 -109.832 -202.501 -165.499s-62.5 -117.834 -62.5 -186.501c0 -94.667 29.167 -171.167 87.5 -229.5s134.5 -87.5 228.5 -87.5c92 0 167.5 26.833 226.5 80.5s88.5 122.167 88.5 205.5c0 66 -23.167 125 -69.5 177
s-145.166 120.667 -296.499 206zM525.998 733.002c-97.333 60 -169.001 121.829 -215.001 185.496s-69 132.834 -69 207.501c0 102 38.167 186.333 114.5 253s173.833 100 292.5 100c116 0 210.167 -29.167 282.5 -87.5s108.5 -133.166 108.5 -224.499
c0 -60 -24.667 -120.167 -74 -180.5s-120.666 -117.5 -213.999 -171.5c124 -66.667 215 -135.667 273 -207s87 -149.666 87 -234.999c0 -114 -46.667 -210.167 -140 -288.5s-209.666 -117.5 -348.999 -117.5c-138.667 0 -250.834 33.333 -336.501 100
s-128.5 152.334 -128.5 257.001c0 78.667 29.167 150.5 87.5 215.5s151.833 129.5 280.5 193.5z" />
    <glyph glyph-name="nine" unicode="9" horiz-adv-x="1251" 
d="M844 578c18 28.667 32.3311 72 42.998 130s16 124.333 16 199c0 165.333 -23.5 293 -70.5 383s-113.5 135 -199.5 135c-93.333 0 -163.166 -38.667 -209.499 -116s-69.5 -195 -69.5 -353c0 -146.667 24.333 -256.667 73 -330s121.334 -110 218.001 -110
c35.333 0 70.333 5.33301 105 16s66 26 94 46zM824.998 502c-34 -15.333 -68.3359 -26.666 -103.003 -33.999s-70 -11 -106 -11c-142 0 -257 46.167 -345 138.5s-132 213.166 -132 362.499c0 151.333 46.5 276 139.5 374s211.167 147 354.5 147
c142.667 0 256.834 -57.5 342.501 -172.5s128.5 -269.167 128.5 -462.5c0 -213.333 -70.167 -397 -210.5 -551s-337.166 -262.667 -590.499 -326l-14 53c133.333 44 245.333 106.667 336 188s157.334 179.333 200.001 294z" />
    <glyph glyph-name="colon" unicode=":" horiz-adv-x="627" 
d="M186 739c0 34.667 12.667 64.5 38 89.5s55 37.5 89 37.5c35.333 0 65 -12.167 89 -36.5s36 -54.5 36 -90.5c0 -34.667 -11.833 -64.167 -35.5 -88.5s-53.5 -36.5 -89.5 -36.5c-35.333 0 -65.333 12.333 -90 37s-37 54 -37 88zM186 100c0 34.667 12.667 64.5 38 89.5
s55 37.5 89 37.5c35.333 0 65 -12.167 89 -36.5s36 -54.5 36 -90.5c0 -34.667 -11.833 -64.167 -35.5 -88.5s-53.5 -36.5 -89.5 -36.5c-35.333 0 -65.333 12.167 -90 36.5s-37 53.833 -37 88.5z" />
    <glyph glyph-name="semicolon" unicode=";" horiz-adv-x="627" 
d="M186 739c0 34.667 12.667 64.5 38 89.5s55 37.5 89 37.5c35.333 0 65 -12.167 89 -36.5s36 -54.5 36 -90.5c0 -34.667 -11.833 -64.167 -35.5 -88.5s-53.5 -36.5 -89.5 -36.5c-35.333 0 -65.333 12.333 -90 37s-37 54 -37 88zM178 -336l-28.002 30.998
c54.667 48.667 95.834 93 123.501 133s41.5 74.667 41.5 104c0 12.667 -2.16699 22.834 -6.5 30.501s-11.5 14.834 -21.5 21.501l-20 11c-54 32 -81 70 -81 114c0 31.333 10.833 57.833 32.5 79.5s47.834 32.5 78.501 32.5c40.667 0 73.667 -14.5 99 -43.5
s38 -67.167 38 -114.5c0 -66.667 -22.667 -135.667 -68 -207s-108 -135.333 -188 -192z" />
    <glyph glyph-name="less" unicode="&#x3c;" horiz-adv-x="1706" 
d="M1442 1145v-127l-1000 -408l1000 -405v-129l-1178 483v103z" />
    <glyph glyph-name="equal" unicode="=" horiz-adv-x="1706" 
d="M254 477h1198v-117h-1198v117zM254 860h1198v-117h-1198v117z" />
    <glyph glyph-name="greater" unicode="&#x3e;" horiz-adv-x="1706" 
d="M264 1145l1178 -483v-103l-1178 -483v129l1000 405l-1000 408v127z" />
    <glyph glyph-name="question" unicode="?" horiz-adv-x="1006" 
d="M238 100c0 34.667 12.5 64.5 37.5 89.5s54.833 37.5 89.5 37.5s64.5 -12.167 89.5 -36.5s37.5 -54.5 37.5 -90.5c0 -34.667 -12.333 -64.167 -37 -88.5s-54.667 -36.5 -90 -36.5c-36 0 -66.167 12.167 -90.5 36.5s-36.5 53.833 -36.5 88.5zM332 369v507
c12.667 0 25.334 -0.333008 38.001 -1s27.334 -1 44.001 -1c90.667 0 157.334 20.833 200.001 62.5s64 107.167 64 196.5c0 70 -16.5 126.333 -49.5 169s-76.5 64 -130.5 64c-38 0 -88.333 -16 -151 -48s-105.334 -48 -128.001 -48c-24.667 0 -43.834 6.5 -57.501 19.5
s-20.5 31.833 -20.5 56.5c0 34 19.833 64 59.5 90s88.834 39 147.501 39c42.667 0 84.167 -5.83301 124.5 -17.5s78.166 -28.5 113.499 -50.5c72.667 -45.333 129 -102.333 169 -171s60 -142.667 60 -222c0 -104.667 -33.5 -187.5 -100.5 -248.5
s-157.833 -91.5 -272.5 -91.5c-4.66699 0 -11.334 0.333008 -20.001 1s-15.667 1 -21 1v-307h-69z" />
    <glyph glyph-name="at" unicode="@" horiz-adv-x="2019" 
d="M1190 336c-41.333 -70.667 -87.667 -123.501 -139 -158.501s-108 -52.5 -170 -52.5c-83.333 0 -150.333 30.667 -201 92s-76 142.666 -76 243.999c0 72 16.333 144 49 216s78.667 136.333 138 193c43.333 42.667 91.333 76 144 100s104.334 36 155.001 36
c58 0 105.667 -16.5 143 -49.5s63.333 -81.5 78 -145.5l53 180h143l-170 -610c0 -1.33301 -0.333008 -3 -1 -5c-11.333 -39.333 -17 -74 -17 -104c0 -31.333 8.5 -56.166 25.5 -74.499s39.833 -27.5 68.5 -27.5c22.667 0 49 5.83301 79 17.5s58.333 27.834 85 48.501
c81.333 60 143.666 137 186.999 231s65 199 65 315c0 93.333 -16.667 177.333 -50 252s-84.333 142.334 -153 203.001c-60 52.667 -132 93.5 -216 122.5s-173 43.5 -267 43.5c-124.667 0 -238.5 -19.5 -341.5 -58.5s-194.833 -97.5 -275.5 -175.5
c-86.667 -84 -152.334 -181.833 -197.001 -293.5s-67 -234.834 -67 -369.501c0 -116.667 19 -218.167 57 -304.5s98.333 -164.5 181 -234.5c76 -64.667 163 -113.5 261 -146.5s204.667 -49.5 320 -49.5c108.667 0 214.5 17.333 317.5 52s201.5 86 295.5 154l30 -36
c-98.667 -73.333 -203 -128.666 -313 -165.999s-224 -56 -342 -56c-124.667 0 -238.667 15.5 -342 46.5s-194.666 77.167 -273.999 138.5c-100.667 75.333 -177.167 166.833 -229.5 274.5s-78.5 227.167 -78.5 358.5c0 136 28.667 263 86 381s140.666 222.333 249.999 313
c87.333 73.333 184.333 128.5 291 165.5s221.334 55.5 344.001 55.5c231.333 0 415.833 -62.333 553.5 -187s206.5 -291 206.5 -499c0 -104.667 -19.333 -203.667 -58 -297s-93 -172 -163 -236c-38 -34.667 -79.167 -61.334 -123.5 -80.001s-89.166 -28 -134.499 -28
c-64.667 0 -114.334 17.5 -149.001 52.5s-54 87.833 -58 158.5zM1098 964.999c-36 0 -68.999 -10.332 -98.999 -30.999s-60.667 -54 -92 -100c-48 -72 -86.167 -150 -114.5 -234s-42.5 -159 -42.5 -225c0 -62 13.5 -111 40.5 -147s63.167 -54 108.5 -54
c44 0 86 14.833 126 44.5s78.667 74.167 116 133.5c38 62.667 68.333 130.167 91 202.5s34 138.166 34 197.499c0 62 -15.833 113 -47.5 153s-71.834 60 -120.501 60z" />
    <glyph glyph-name="A" unicode="A" horiz-adv-x="1464" 
d="M442 604h484l-244 692zM6 0v57.002c66 1.33301 118.667 19.666 158 54.999s74.666 97 105.999 185l420 1178h117l430 -1184c37.333 -104 70.833 -169 100.5 -195s71.834 -39 126.501 -39h13v-57h-594v57c63.333 0 109.166 8.33301 137.499 25s42.5 43.334 42.5 80.001
c0 13.333 -2.5 31.166 -7.5 53.499s-12.167 46.166 -21.5 71.499l-90 262h-522l-84 -244c-9.33301 -27.333 -16.166 -51 -20.499 -71s-6.5 -37.333 -6.5 -52c0 -40 14.167 -70.833 42.5 -92.5s68.833 -32.5 121.5 -32.5h21v-57h-490z" />
    <glyph glyph-name="B" unicode="B" horiz-adv-x="1485" 
d="M549 231c0 -75.333 10.668 -122.833 32.001 -142.5s68.666 -29.5 141.999 -29.5c142 0 243.333 26.5 304 79.5s91 140.5 91 262.5c0 111.333 -32 192.5 -96 243.5s-165.667 76.5 -305 76.5h-168v-490zM692.001 778c132 0 228.5 24.667 289.5 74s91.5 127 91.5 233
c0 110 -27.667 188.167 -83 234.5s-150.333 69.5 -285 69.5c-62 0 -103.5 -10.167 -124.5 -30.5s-31.5 -61.5 -31.5 -123.5v-457h143zM88.001 0l-0.00195312 59.001h64c84.667 0 138.834 10.167 162.501 30.5s35.5 69.833 35.5 148.5v970c0 79.333 -12 129.333 -36 150
s-78 31 -162 31h-64v57h662c162.667 0 289.334 -30.667 380.001 -92s136 -146.666 136 -255.999c0 -80.667 -24.167 -148.667 -72.5 -204s-121.833 -99.333 -220.5 -132c117.333 -24.667 206 -67.834 266 -129.501s90 -140.834 90 -237.501
c0 -134.667 -51.833 -234.167 -155.5 -298.5s-264.167 -96.5 -481.5 -96.5h-604z" />
    <glyph glyph-name="C" unicode="C" horiz-adv-x="1470" 
d="M1386 328c-62 -116 -144.667 -205.165 -248 -267.498s-220.666 -93.5 -351.999 -93.5c-88.667 0 -170.167 13.667 -244.5 41s-140.166 67.666 -197.499 120.999c-77.333 71.333 -135.833 157.5 -175.5 258.5s-59.5 214.167 -59.5 339.5c0 124.667 19.333 236 58 334
s95.667 180.667 171 248c61.333 54.667 129.166 96.334 203.499 125.001s153.166 43 236.499 43c66 0 136.5 -12.667 211.5 -38s118.5 -38 130.5 -38c22 0 40.167 5.5 54.5 16.5s28.5 30.833 42.5 59.5h65l84 -441l-63 -8c-52.667 125.333 -122.5 221.166 -209.5 287.499
s-186.5 99.5 -298.5 99.5c-152 0 -268.167 -58.667 -348.5 -176s-120.5 -287.333 -120.5 -510c0 -219.333 43.5 -389.833 130.5 -511.5s209.167 -182.5 366.5 -182.5c103.333 0 198.833 27.667 286.5 83s165.5 136.666 233.5 243.999z" />
    <glyph glyph-name="D" unicode="D" horiz-adv-x="1702" 
d="M549 270c0 -92.667 13.499 -150.665 40.499 -173.998s92.5 -35 196.5 -35c218 0 371.833 51.667 461.5 155s134.5 279.666 134.5 528.999c0 227.333 -48 391.5 -144 492.5s-252.667 151.5 -470 151.5c-95.333 0 -155.666 -11.333 -180.999 -34s-38 -80.334 -38 -173.001
v-912zM87.999 0.00195312l-0.000976562 60.999h64c85.333 0 139.666 10 162.999 30s35 69 35 147v970c0 79.333 -12 129.333 -36 150s-78 31 -162 31h-64v57h690c116 0 212.833 -8.5 290.5 -25.5s146.834 -44.167 207.501 -81.5c105.333 -64 185.5 -147.667 240.5 -251
s82.5 -221 82.5 -353c0 -141.333 -31.333 -268.166 -94 -380.499s-152.667 -201.833 -270 -268.5c-51.333 -29.333 -116.666 -51 -195.999 -65s-175 -21 -287 -21h-664z" />
    <glyph glyph-name="E" unicode="E" horiz-adv-x="1536" 
d="M88 0l-0.00195312 57h64c84 0 138 10.333 162 31s36 70.667 36 150v970c0 79.333 -12 129.333 -36 150s-78 31 -162 31h-64v57h1204l39 -371h-71c-28.667 114 -71.667 193.333 -129 238s-147 67 -269 67h-141c-69.333 0 -115.333 -10.833 -138 -32.5
s-34 -68.167 -34 -139.5v-409l7 -1c38.667 -2 66.334 -3 83.001 -3c104 0 178.167 18.833 222.5 56.5s66.5 100.5 66.5 188.5v13h65v-576h-65c-1.33301 98 -23.166 166.167 -65.499 204.5s-118.166 57.5 -227.499 57.5c-22.667 0 -40.167 -0.166992 -52.5 -0.5
s-23.5 -0.833008 -33.5 -1.5v-489c0 -82 14.167 -132.833 42.5 -152.5s85.166 -29.5 170.499 -29.5h110c131.333 0 232.333 30.5 303 91.5s126 166.167 166 315.5l76 -14l-94 -459h-1235z" />
    <glyph glyph-name="F" unicode="F" horiz-adv-x="1403" 
d="M549 799l6.99707 -1c38.667 -2 66.334 -3 83.001 -3c104 0 178.167 18.833 222.5 56.5s66.5 100.5 66.5 188.5v13h65v-576h-65c-1.33301 98 -23.166 166.167 -65.499 204.5s-118.166 57.5 -227.499 57.5c-22.667 0 -40.167 -0.166992 -52.5 -0.5
s-23.5 -0.833008 -33.5 -1.5v-499c0 -79.333 12 -129.333 36 -150s78.333 -31 163 -31h63v-57h-723v57h64c84 0 138 10.333 162 31s36 70.667 36 150v970c0 79.333 -12 129.333 -36 150s-78 31 -162 31h-64v57h1204l39 -371h-71c-28.667 114 -71.667 193.333 -129 238
s-147 67 -269 67h-141c-69.333 0 -115.333 -10.833 -138 -32.5s-34 -68.167 -34 -139.5v-409z" />
    <glyph glyph-name="G" unicode="G" horiz-adv-x="1563" 
d="M1274 -2c-12 19.333 -25.668 33.6641 -41.001 42.9971s-32.333 14 -51 14c-12.667 0 -61 -14.667 -145 -44s-166 -44 -246 -44c-201.333 0 -364.666 67.833 -489.999 203.5s-188 312.834 -188 531.501c0 106.667 15.167 205.667 45.5 297s75.166 173.333 134.499 246
c60.667 74.667 133.334 132.334 218.001 173.001s173.667 61 267 61c42.667 0 84.834 -4.5 126.501 -13.5s82.834 -22.5 123.501 -40.5c16.667 -7.33301 42.667 -21.333 78 -42s62.666 -31 81.999 -31c18.667 0 35 6 49 18s25 29.667 33 53h73v-446h-57
c-44 144.667 -108.333 254.167 -193 328.5s-187.667 111.5 -309 111.5c-147.333 0 -259.5 -60 -336.5 -180s-115.5 -294.667 -115.5 -524c0 -233.333 37.667 -405.333 113 -516s192 -166 350 -166c116.667 0 206.5 26 269.5 78s94.5 126.333 94.5 223v78
c0 52 -10.333 86.833 -31 104.5s-74.334 29.834 -161.001 36.501v57h563v-57c-79.333 0 -131 -10.667 -155 -32s-36 -82.333 -36 -183v-338h-65z" />
    <glyph glyph-name="H" unicode="H" horiz-adv-x="1806" 
d="M549 782h708v426c0 79.333 -11.833 129.333 -35.5 150s-77.834 31 -162.501 31h-64v57h721v-57h-63c-84 0 -137.833 -10.167 -161.5 -30.5s-35.5 -70.5 -35.5 -150.5v-970c0 -80 11.833 -130.167 35.5 -150.5s77.5 -30.5 161.5 -30.5h63v-57h-721v57h64
c84.667 0 138.834 10.333 162.501 31s35.5 70.667 35.5 150v487h-708v-487c0 -80 11.833 -130.167 35.5 -150.5s77.167 -30.5 160.5 -30.5h64v-57h-721v57h64c84 0 138 10.333 162 31s36 70.667 36 150v970c0 79.333 -12 129.333 -36 150s-78 31 -162 31h-64v57h721v-57h-64
c-83.333 0 -136.833 -10.167 -160.5 -30.5s-35.5 -70.5 -35.5 -150.5v-426z" />
    <glyph glyph-name="I" unicode="I" horiz-adv-x="901" 
d="M549 238c0 -79.333 12 -129.333 36 -150s78.333 -31 163 -31h63v-57h-721v57h64c83.333 0 136.833 10.167 160.5 30.5s35.5 70.5 35.5 150.5v970c0 80 -11.833 130.167 -35.5 150.5s-77.167 30.5 -160.5 30.5h-64v57h721v-57h-63c-84.667 0 -139 -10.333 -163 -31
s-36 -70.667 -36 -150v-970z" />
    <glyph glyph-name="J" unicode="J" horiz-adv-x="858" 
d="M350 -10l0.000976562 1218c0 79.333 -12 129.333 -36 150s-78 31 -162 31h-64v57h721v-57h-64c-83.333 0 -136.833 -10.167 -160.5 -30.5s-35.5 -70.5 -35.5 -150.5v-757c0 -169.333 -7.66699 -297.5 -23 -384.5s-40.333 -160.5 -75 -220.5
c-40.667 -68 -91.334 -121.167 -152.001 -159.5s-125.667 -57.5 -195 -57.5c-61.333 0 -111.333 12.333 -150 37s-58 56 -58 94c0 30.667 11.333 56.167 34 76.5s51.334 30.5 86.001 30.5c37.333 0 81.666 -19.333 132.999 -58c6 -4.66699 10 -7.66699 12 -9l12 -9
c36 -26 65 -39 87 -39c34 0 57.5 14.333 70.5 43s19.5 93.667 19.5 195z" />
    <glyph glyph-name="K" unicode="K" horiz-adv-x="1571" 
d="M549 698l477 512.001c16.667 18 29.667 36.167 39 54.5s14 35.166 14 50.499c0 25.333 -9.33301 44 -28 56s-48.667 18 -90 18h-41v57h596v-57h-68c-63.333 0 -115.833 -9.83301 -157.5 -29.5s-92.167 -60.5 -151.5 -122.5l-389 -401l548 -611
c65.333 -72 114.833 -118 148.5 -138s69.5 -30 107.5 -30v-57h-643v57h80c49.333 0 84.5 5 105.5 15s31.5 26.333 31.5 49c0 8.66699 -5 20.667 -15 36s-27.333 37.333 -52 66l-432 486l-80 -86v-385c0 -80 11.833 -130.167 35.5 -150.5s77.167 -30.5 160.5 -30.5h48v-57
h-705v57h64c84 0 138 10.333 162 31s36 70.667 36 150v970c0 79.333 -12 129.333 -36 150s-78 31 -162 31h-64v57h705v-57h-48c-83.333 0 -136.833 -10.167 -160.5 -30.5s-35.5 -70.5 -35.5 -150.5v-510z" />
    <glyph glyph-name="L" unicode="L" horiz-adv-x="1372" 
d="M811 1446l0.000976562 -57h-63c-84.667 0 -139 -10.333 -163 -31s-36 -70.667 -36 -150v-960c0 -82 14.667 -132.833 44 -152.5s91.666 -29.5 186.999 -29.5c130.667 0 235 31 313 93s148 170 210 324l71 -16l-106 -467h-1180v57h64c84 0 138 10.333 162 31
s36 70.667 36 150v970c0 79.333 -12 129.333 -36 150s-78 31 -162 31h-64v57h723z" />
    <glyph glyph-name="M" unicode="M" horiz-adv-x="2003" 
d="M135 0l-0.000976562 57.001c82.667 7.33301 139.167 33.666 169.5 78.999s45.5 137.333 45.5 276v762c0 84.667 -10.667 141.667 -32 171s-61 44 -119 44h-80v57h465l403 -1192l430 1192h479v-57h-47c-84 0 -138 -10.333 -162 -31s-36 -70.667 -36 -150v-970
c0 -79.333 12 -129.333 36 -150s78 -31 162 -31h47v-57h-704v57h63c84 0 137.833 10.167 161.5 30.5s35.5 70.5 35.5 150.5v1151l-500 -1389h-75l-465 1389v-1006c0 -122.667 14.833 -207.667 44.5 -255s80.834 -71 153.501 -71h49v-57h-524z" />
    <glyph glyph-name="N" unicode="N" horiz-adv-x="1706" 
d="M68 0v57h59c80 0 135.5 22 166.5 66s46.5 126.667 46.5 248v780c0 79.333 -15.667 138.833 -47 178.5s-78.333 59.5 -141 59.5h-84v57h415l840 -1186v834c0 104 -17 179.167 -51 225.5s-88.667 69.5 -164 69.5h-59v57h600v-57h-66c-72 0 -123.167 -19.5 -153.5 -58.5
s-45.5 -105.833 -45.5 -200.5v-1163h-73l-910 1270v-866c0 -118.667 15 -200.667 45 -246s82 -68 156 -68h70v-57h-604z" />
    <glyph glyph-name="O" unicode="O" horiz-adv-x="1583" 
d="M791 29c149.333 0 264 59.6689 344 179.002s120 291 120 515c0 223.333 -40.167 395.166 -120.5 515.499s-194.833 180.5 -343.5 180.5c-149.333 0 -263.833 -59.833 -343.5 -179.5s-119.5 -291.834 -119.5 -516.501s39.833 -396.5 119.5 -515.5
s194.167 -178.5 343.5 -178.5zM109 729.002c0 131.333 23.833 249.168 71.5 353.501s117.834 192.833 210.501 265.5c55.333 42.667 117.166 75.167 185.499 97.5s139.833 33.5 214.5 33.5c75.333 0 147.666 -11.333 216.999 -34s130.666 -55 183.999 -97
c93.333 -73.333 163.833 -162.5 211.5 -267.5s71.5 -224.167 71.5 -357.5c0 -134 -23.833 -253.333 -71.5 -358s-118.167 -193.667 -211.5 -267c-53.333 -42 -114.666 -74.333 -183.999 -97s-141.666 -34 -216.999 -34c-200.667 0 -364.5 70.667 -491.5 212
s-190.5 324.666 -190.5 549.999z" />
    <glyph glyph-name="P" unicode="P" horiz-adv-x="1389" 
d="M549 713l126.999 0.000976562c142 0 246.5 27.167 313.5 81.5s100.5 139.166 100.5 254.499c0 116 -30.333 200.833 -91 254.5s-156.667 80.5 -288 80.5c-69.333 0 -113.666 -9.16699 -132.999 -27.5s-29 -60.833 -29 -127.5v-516zM548.999 238.001
c0 -80 11.833 -130.167 35.5 -150.5s77.167 -30.5 160.5 -30.5h74v-57h-731v57h64c84 0 138 10.333 162 31s36 70.667 36 150v970c0 76 -10.667 124.333 -32 145s-67.333 31 -138 31h-28h-64v62h623c193.333 0 338.5 -33.5 435.5 -100.5s145.5 -167.5 145.5 -301.5
c0 -120 -46.5 -214.5 -139.5 -283.5s-221.833 -103.5 -386.5 -103.5h-217v-419z" />
    <glyph glyph-name="Q" unicode="Q" horiz-adv-x="1583" 
d="M705 -27c-185.333 29.333 -330.995 110.5 -436.995 243.5s-159 301.833 -159 506.5c0 133.333 23.5 252.166 70.5 356.499s117.5 193.833 211.5 268.5c54 42 115.333 74.333 184 97s140.667 34 216 34s147.666 -11.333 216.999 -34s130.666 -55 183.999 -97
c93.333 -73.333 163.833 -162.5 211.5 -267.5s71.5 -224.167 71.5 -357.5c0 -194 -47.833 -356 -143.5 -486s-230.834 -216.667 -405.501 -260c6.66699 -77.333 33.167 -135.833 79.5 -175.5s111.166 -59.5 194.499 -59.5c40.667 0 84.667 5.33301 132 16
s97 26.334 149 47.001l18 -51c-64 -32.667 -130.833 -57.5 -200.5 -74.5s-140.834 -25.5 -213.501 -25.5c-112 0 -199 26 -261 78s-101.667 132.333 -119 241zM791.005 29c149.333 0 264 59.6689 344 179.002s120 291 120 515c0 223.333 -40.167 395.166 -120.5 515.499
s-194.833 180.5 -343.5 180.5c-149.333 0 -263.833 -59.833 -343.5 -179.5s-119.5 -291.834 -119.5 -516.501s39.833 -396.5 119.5 -515.5s194.167 -178.5 343.5 -178.5z" />
    <glyph glyph-name="R" unicode="R" horiz-adv-x="1511" 
d="M791 1446c164 0 290.667 -32.834 380 -98.501s134 -158.5 134 -278.5c0 -95.333 -39.167 -175.5 -117.5 -240.5s-186.833 -107.167 -325.5 -126.5l418 -524c32 -40.667 68.5 -70.167 109.5 -88.5s95.167 -29.166 162.5 -32.499v-57h-374l-512 696h-117v-458
c0 -80 11.833 -130.167 35.5 -150.5s77.167 -30.5 160.5 -30.5h64v-57h-721v57h64c84 0 138 10.333 162 31s36 70.667 36 150v970c0 78 -11.167 127.167 -33.5 147.5s-71.833 30.5 -148.5 30.5h-16h-64v60h703zM549 753.999h118.999c146.667 0 254.667 24.833 324 74.5
s104 127.167 104 232.5c0 110.667 -29.667 192.5 -89 245.5s-150.666 79.5 -273.999 79.5c-76.667 0 -126.5 -10.5 -149.5 -31.5s-34.5 -65.5 -34.5 -133.5v-467z" />
    <glyph glyph-name="S" unicode="S" horiz-adv-x="1233" 
d="M184 12l-15.9971 391.003h63c40 -115.333 99.667 -206.5 179 -273.5s166.666 -100.5 261.999 -100.5c88 0 159.5 27.5 214.5 82.5s82.5 126.5 82.5 214.5c0 68.667 -19.667 124.5 -59 167.5s-131.666 94.167 -276.999 153.5l-64 25
c-129.333 49.333 -221.333 101 -276 155c-36.667 36 -64.667 77.167 -84 123.5s-29 96.166 -29 149.499c0 108.667 35.667 199 107 271s160.666 108 267.999 108c62 0 126.667 -13 194 -39s104.333 -39 111 -39c15.333 0 28.833 3.66699 40.5 11s21.5 18.666 29.5 33.999h65
l49 -318h-57c-47.333 94.667 -106.833 167.167 -178.5 217.5s-150.834 75.5 -237.501 75.5c-80 0 -143.667 -22 -191 -66s-71 -103 -71 -177c0 -37.333 6 -70.833 18 -100.5s29.333 -55.167 52 -76.5c45.333 -43.333 125 -87 239 -131l52 -20l44 -18
c136.667 -54 233.334 -111.667 290.001 -173c32.667 -36 56.834 -76 72.501 -120s23.5 -95.333 23.5 -154c0 -118.667 -41.5 -217.667 -124.5 -297s-187.5 -119 -313.5 -119c-60.667 0 -127.834 16.167 -201.501 48.5s-117.834 48.5 -132.501 48.5
c-20.667 0 -37.834 -4.33301 -51.501 -13s-24.5 -22.334 -32.5 -41.001h-60z" />
    <glyph glyph-name="T" unicode="T" horiz-adv-x="1569" 
d="M684 1200c0 76.667 -11.832 127.334 -35.499 152.001s-69.167 37 -136.5 37c-94 0 -169.167 -27.5 -225.5 -82.5s-102.833 -146.5 -139.5 -274.5l-77 10l94 404h1241l92 -404l-76 -10c-36.667 128 -83.334 219.5 -140.001 274.5s-132 82.5 -226 82.5
c-67.333 0 -112.833 -12.333 -136.5 -37s-35.5 -75.334 -35.5 -152.001v-962c0 -78.667 12 -128.5 36 -149.5s78 -31.5 162 -31.5h78v-57h-749v57h77c84 0 137.833 10.5 161.5 31.5s35.5 70.833 35.5 149.5v962z" />
    <glyph glyph-name="U" unicode="U" horiz-adv-x="1612" 
d="M317 539l-0.000976562 669.001c0 78.667 -12.167 128.5 -36.5 149.5s-78.166 31.5 -161.499 31.5h-64v57h705v-57h-47c-84 0 -137.833 -10.167 -161.5 -30.5s-35.5 -70.5 -35.5 -150.5v-721c0 -158.667 27.667 -272 83 -340s146.333 -102 273 -102
c83.333 0 156 18.333 218 55s107 88 135 154c16 38 27.5 81.5 34.5 130.5s10.5 125.5 10.5 229.5v463c0 129.333 -16.833 212.666 -50.5 249.999s-99.5 58 -197.5 62v57h551v-57c-92.667 -3.33301 -156.167 -26 -190.5 -68s-51.5 -122.667 -51.5 -242v-477
c0 -224.667 -41 -386.667 -123 -486s-215 -149 -399 -149c-164 0 -287 47.667 -369 143s-123 238.333 -123 429z" />
    <glyph glyph-name="V" unicode="V" horiz-adv-x="1384" 
d="M657 -29l-425.999 1211c-28.667 82.667 -57.5 137.834 -86.5 165.501s-68.167 41.5 -117.5 41.5h-11v57h572v-57c-66 -2.66699 -112.167 -12.167 -138.5 -28.5s-39.5 -43.166 -39.5 -80.499c0 -14 2 -29.833 6 -47.5s11.333 -41.5 22 -71.5l326 -942l336 944
c8 22.667 14 44.334 18 65.001s6 39.334 6 56.001c0 36 -15.167 62.5 -45.5 79.5s-78.5 25.5 -144.5 25.5h-12v57h469v-57c-54.667 -1.33301 -99.334 -19.5 -134.001 -54.5s-68.667 -98.833 -102 -191.5l-422 -1172h-76z" />
    <glyph glyph-name="W" unicode="W" horiz-adv-x="1892" 
d="M590 -29l-350 1229c-22 78 -45.833 129 -71.5 153s-63.5 36 -113.5 36v57h508v-57c-56.667 0 -96.334 -6.5 -119.001 -19.5s-34 -34.5 -34 -64.5c0 -10.667 1 -22.167 3 -34.5s5 -25.5 9 -39.5l270 -957l248 850c-30.667 113.333 -60.667 185.833 -90 217.5
s-73 47.5 -131 47.5h-10v57h538v-57c-54 0 -92.333 -6.83301 -115 -20.5s-34 -36.5 -34 -68.5c0 -14 1 -28.167 3 -42.5s5 -28.833 9 -43.5l252 -942l248 873c6.66699 24 11.667 46.667 15 68s5 41 5 59c0 39.333 -10.833 68.666 -32.5 87.999s-55.167 29 -100.5 29h-37v57
h430v-57c-52 0 -94.667 -17.333 -128 -52s-61.666 -92 -84.999 -172l-344 -1194h-76l-286 1061l-307 -1061h-74z" />
    <glyph glyph-name="X" unicode="X" horiz-adv-x="1561" 
d="M-10 0l-0.00390625 56.9971c64 1.33301 124.333 19.833 181 55.5s126.667 102.5 210 200.5l321 379l-383 514c-49.333 68 -96.666 115 -141.999 141s-99.666 40 -162.999 42v57h678v-57c-61.333 -3.33301 -105.666 -12.166 -132.999 -26.499s-41 -36.5 -41 -66.5
c0 -15.333 3.5 -31.5 10.5 -48.5s18.5 -36.167 34.5 -57.5l256 -354l242 282c30.667 37.333 54 70.333 70 99s24 52.334 24 71.001c0 36 -13.167 61.833 -39.5 77.5s-71.166 23.5 -134.499 23.5v57h598v-57h-27c-67.333 0 -129.166 -16.667 -185.499 -50
s-126.833 -98.666 -211.5 -195.999l-303 -350l381 -510c64 -84.667 122.667 -143 176 -175s115.333 -49 186 -51v-57h-714v57h16c53.333 0 94.666 9 123.999 27s44 43.333 44 76c0 11.333 -2.33301 23.166 -7 35.499s-12 25.833 -22 40.5l-301 411l-280 -338
c-26.667 -31.333 -46 -59.666 -58 -84.999s-18 -49.333 -18 -72c0 -33.333 11.833 -57.5 35.5 -72.5s62.167 -22.5 115.5 -22.5h60v-57h-600z" />
    <glyph glyph-name="Y" unicode="Y" horiz-adv-x="1356" 
d="M801 238c0 -80 11.832 -130.169 35.499 -150.502s77.167 -30.5 160.5 -30.5h64v-57h-721v57h63c84.667 0 139 10.333 163 31s36 70.667 36 150v260l-346 696c-40 80.667 -76 132.667 -108 156s-75.333 36.333 -130 39v57h588v-57c-62 -1.33301 -105.5 -9 -130.5 -23
s-37.5 -37.333 -37.5 -70c0 -13.333 2 -27.666 6 -42.999s9.66699 -31 17 -47l313 -657l299 575c18.667 34.667 32.167 64.834 40.5 90.501s12.5 48.167 12.5 67.5c0 36.667 -14.333 63.667 -43 81s-73.667 26 -135 26h-10v57h453v-57
c-41.333 -1.33301 -77.166 -15.333 -107.499 -42s-67.833 -81.667 -112.5 -165l-370 -707v-237z" />
    <glyph glyph-name="Z" unicode="Z" horiz-adv-x="1327" 
d="M96 0l-0.00195312 78l875 1311h-348c-112.667 0 -201.167 -25 -265.5 -75s-109.166 -129 -134.499 -237h-71l71 369h955v-76l-873 -1309h420c136.667 0 238.334 27.333 305.001 82s120.667 153.667 162 297h70l-84 -440h-1082z" />
    <glyph glyph-name="bracketleft" unicode="[" horiz-adv-x="688" 
d="M166 -262v1708h463v-74h-305v-1562h305v-72h-463z" />
    <glyph glyph-name="backslash" unicode="\" horiz-adv-x="569" 
d="M561 -190l-610 1669h119l608 -1669h-117z" />
    <glyph glyph-name="bracketright" unicode="]" horiz-adv-x="688" 
d="M520 -262h-463v72h308v1562h-308v74h463v-1708z" />
    <glyph glyph-name="asciicircum" unicode="^" horiz-adv-x="2048" 
d="M934 1462h178l520 -565h-92l-518 436l-520 -436h-90z" />
    <glyph glyph-name="underscore" unicode="_" 
d="M0 -365h1024v-118h-1024v118z" />
    <glyph glyph-name="grave" unicode="`" 
d="M399 1358l288.999 -298.999h-67l-330 205c-20.667 13.333 -36.167 26.666 -46.5 39.999s-15.5 27.333 -15.5 42c0 20 6.83301 36.833 20.5 50.5s30.834 20.5 51.501 20.5c14 0 28 -4 42 -12s32.667 -23.667 56 -47z" />
    <glyph glyph-name="a" unicode="a" horiz-adv-x="995" 
d="M637 178v336c-126 -21.333 -221.667 -56.5 -287 -105.5s-98 -110.167 -98 -183.5c0 -52 12.667 -92.667 38 -122s60.333 -44 105 -44c36 0 74.333 10 115 30s83 49.667 127 89zM639 115c-59.333 -44 -115.335 -76.499 -168.002 -97.499s-103.334 -31.5 -152.001 -31.5
c-71.333 0 -129.666 21.667 -174.999 65s-68 98.666 -68 165.999c0 85.333 42.5 154.333 127.5 207s229.5 98.334 433.5 137.001v125c0 75.333 -13.5 128.333 -40.5 159s-72.167 46 -135.5 46c-43.333 0 -73.666 -4.83301 -90.999 -14.5s-29.333 -30.167 -36 -61.5
c-2.66699 -12 -6 -29.333 -10 -52c-15.333 -85.333 -48.333 -128 -99 -128c-25.333 0 -46.333 9.5 -63 28.5s-25 42.833 -25 71.5c0 59.333 30.833 108.333 92.5 147s140.834 58 237.501 58c74 0 135.5 -9.16699 184.5 -27.5s87.167 -46.166 114.5 -83.499
c12 -16 20.5 -37.667 25.5 -65s7.5 -79.333 7.5 -156v-413c0 -44.667 3.16699 -73.667 9.5 -87s18.166 -20 35.499 -20c18 0 35.333 10.833 52 32.5s32.667 54.5 48 98.5l47 -14c-17.333 -68.667 -45.666 -122.334 -84.999 -161.001s-84 -58 -134 -58
c-35.333 0 -64 10.667 -86 32s-37.667 53.666 -47 96.999z" />
    <glyph glyph-name="b" unicode="b" horiz-adv-x="1102" 
d="M328 156c24 -38 55.332 -66.999 93.999 -86.999s81.667 -30 129 -30c94.667 0 167.5 38.333 218.5 115s76.5 187 76.5 331c0 134.667 -23.333 236.667 -70 306s-115 104 -205 104c-43.333 0 -85.666 -9.33301 -126.999 -28s-80 -46.334 -116 -83.001v-628z
M165.999 -24.999l0.00195312 1268c0 70 -8.66699 114.167 -26 132.5s-55 27.5 -113 27.5h-31v55c53.333 2 107.666 5.83301 162.999 11.5s111.666 13.5 168.999 23.5v-641c44.667 32.667 89.5 56.834 134.5 72.501s92.167 23.5 141.5 23.5c128 0 230.333 -43.333 307 -130
s115 -203 115 -349c0 -145.333 -40.5 -263.166 -121.5 -353.499s-185.833 -135.5 -314.5 -135.5c-56.667 0 -109.167 9.83301 -157.5 29.5s-94.833 50.5 -139.5 92.5l-64 -127h-63z" />
    <glyph glyph-name="c" unicode="c" horiz-adv-x="909" 
d="M889 154c-54 -60 -111.001 -104.833 -171.001 -134.5s-124.667 -44.5 -194 -44.5c-130 0 -237.5 46 -322.5 138s-127.5 208.667 -127.5 350c0 140 43.667 255.833 131 347.5s197.333 137.5 330 137.5c89.333 0 163.833 -15.667 223.5 -47s89.5 -69 89.5 -113
c0 -23.333 -8.16699 -42.666 -24.5 -57.999s-36.833 -23 -61.5 -23c-40 0 -82.667 33 -128 99l-28 40c-11.333 16 -27 28.5 -47 37.5s-41.667 13.5 -65 13.5c-75.333 0 -133.833 -35.333 -175.5 -106s-62.5 -170.334 -62.5 -299.001c0 -138 27.833 -247 83.5 -327
s130.834 -120 225.501 -120c49.333 0 98 12.5 146 37.5s94.333 61.833 139 110.5z" />
    <glyph glyph-name="d" unicode="d" horiz-adv-x="1155" 
d="M764 786c-40 34.667 -79.5 60.5 -118.5 77.5s-78.833 25.5 -119.5 25.5c-90.667 0 -160 -36.333 -208 -109s-72 -177.667 -72 -315c0 -136 23.833 -241.667 71.5 -317s114.5 -113 200.5 -113c41.333 0 82.333 9.16699 123 27.5s81.667 45.833 123 82.5v641zM764 1243
c0 70 -8.50098 114.167 -25.501 132.5s-53.5 27.5 -109.5 27.5h-39v55c54.667 2 110.167 6 166.5 12s112.833 13.667 169.5 23v-1262c0 -70 8.66699 -114.333 26 -133s54.333 -28 111 -28h37v-53c-68.667 -4 -130.5 -8.83301 -185.5 -14.5s-105.167 -12.5 -150.5 -20.5v104
c-46.667 -35.333 -93.5 -61.833 -140.5 -79.5s-93.833 -26.5 -140.5 -26.5c-116.667 0 -214.667 46 -294 138s-119 207 -119 345c0 140 39.5 255.167 118.5 345.5s179.167 135.5 300.5 135.5c49.333 0 96.833 -7.83301 142.5 -23.5s89.834 -39.167 132.501 -70.5v393z" />
    <glyph glyph-name="e" unicode="e" horiz-adv-x="915" 
d="M260 602l408 0.000976562c0 5.33301 0.333008 12.166 1 20.499s1 14.5 1 18.5c0 82 -17.333 145.833 -52 191.5s-83 68.5 -145 68.5c-65.333 0 -115.333 -24.333 -150 -73s-55.667 -124 -63 -226zM860 211.001c-41.333 -77.333 -93.8359 -136.333 -157.503 -177
s-135.5 -61 -215.5 -61c-119.333 0 -217.666 45.667 -294.999 137s-116 207.666 -116 348.999c0 140.667 39.333 257.334 118 350.001s175.667 139 291 139c102.667 0 187.334 -37.167 254.001 -111.5s101.334 -170.833 104.001 -289.5h-587
c-0.666992 -10 -1.16699 -20.667 -1.5 -32s-0.5 -27.333 -0.5 -48c0 -131.333 24.167 -232.833 72.5 -304.5s116.833 -107.5 205.5 -107.5c54.667 0 106 16 154 48s92.333 79.667 133 143z" />
    <glyph glyph-name="f" unicode="f" horiz-adv-x="682" 
d="M414 172c0 -48 6.33301 -79.1689 19 -93.502s41 -21.5 85 -21.5h82v-57h-528v57h53c51.333 0 85.333 7.83301 102 23.5s25 46.167 25 91.5v696h-172v56h172v100c0 152.667 30.5 268.334 91.5 347.001s150.5 118 268.5 118c58.667 0 106.167 -11.667 142.5 -35
s54.5 -53.333 54.5 -90c0 -23.333 -8.33301 -43.166 -25 -59.499s-37 -24.5 -61 -24.5c-36 0 -71 19.333 -105 58c-5.33301 6 -9.33301 10.667 -12 14c-0.666992 0.666992 -2.66699 3 -6 7c-32 36 -61.333 54 -88 54c-36 0 -61.333 -20.5 -76 -61.5s-22 -113.833 -22 -218.5
v-209h217v-56h-217v-696z" />
    <glyph glyph-name="g" unicode="g" horiz-adv-x="1036" 
d="M512 387c56 0 100.667 23.168 134 69.501s50 109.166 50 188.499c0 78.667 -16.667 141 -50 187s-78 69 -134 69c-56.667 0 -101.167 -22.667 -133.5 -68s-48.5 -108 -48.5 -188s16.167 -143 48.5 -189s76.833 -69 133.5 -69zM285 49.001
c-36.667 -32.667 -63.668 -65.499 -81.001 -98.499s-26 -68.5 -26 -106.5c0 -72.667 27.5 -128.667 82.5 -168s133.5 -59 235.5 -59c108 0 192.667 19.5 254 58.5s92 92.5 92 160.5c0 43.333 -13.667 77.666 -41 102.999s-71 44.333 -131 57
c-28.667 6 -86.167 13.667 -172.5 23s-157.166 19.333 -212.499 30zM241.999 66.002c-32.667 8 -57.3291 20.6631 -73.9961 37.9961s-25 39.333 -25 66c0 27.333 11.5 58.333 34.5 93s64.167 80.667 123.5 138c-44.667 28.667 -78.334 62.834 -101.001 102.501
s-34 84.834 -34 135.501c0 93.333 31 168.166 93 224.499s145 84.5 249 84.5c58 0 110.833 -9.5 158.5 -28.5s91.834 -48.5 132.501 -88.5c45.333 47.333 81.166 78.666 107.499 93.999s53.166 23 80.499 23c26 0 48.5 -9.33301 67.5 -28s28.5 -40.667 28.5 -66
s-8.5 -46.666 -25.5 -63.999s-38.5 -26 -64.5 -26c-18 0 -41 7.5 -69 22.5s-48 22.5 -60 22.5c-5.33301 0 -11 -1.66699 -17 -5s-12.667 -8.66602 -20 -15.999c11.333 -24 19.666 -46.833 24.999 -68.5s8 -43.167 8 -64.5c0 -94.667 -30.667 -170.834 -92 -228.501
s-142 -86.5 -242 -86.5c-33.333 0 -65.5 3 -96.5 9s-61.5 15.333 -91.5 28c-22.667 -25.333 -38.667 -46.166 -48 -62.499s-14 -31.833 -14 -46.5c0 -27.333 11.333 -48.166 34 -62.499s60 -24.166 112 -29.499c30.667 -3.33301 73 -7.33301 127 -12
c101.333 -8.66699 166.666 -18.334 195.999 -29.001c79.333 -26.667 136.5 -59.667 171.5 -99s52.5 -89.666 52.5 -150.999c0 -91.333 -43.5 -166.666 -130.5 -225.999s-199.833 -89 -338.5 -89c-138 0 -247 22.5 -327 67.5s-120 105.833 -120 182.5
c0 39.333 13 76.666 39 111.999s76 80 150 134z" />
    <glyph glyph-name="h" unicode="h" horiz-adv-x="1200" 
d="M45 0l0.00195312 57.001h53c51.333 0 85.333 7.83301 102 23.5s25 46.167 25 91.5v1071c0 70 -8.5 114.167 -25.5 132.5s-54.833 27.5 -113.5 27.5h-31l1 55c53.333 2 107.666 5.83301 162.999 11.5s111.333 13.5 168 23.5v-721c60 54 119 94.833 177 122.5
s113.667 41.5 167 41.5c92.667 0 158.5 -30.667 197.5 -92s58.5 -169.333 58.5 -324v-340c0 -52.667 7 -86.334 21 -101.001s45.333 -22 94 -22h43v-57h-481v57h47c45.333 0 75.666 8 90.999 24s23 50.333 23 103v381c0 100 -14.5 170.833 -43.5 212.5
s-77.167 62.5 -144.5 62.5c-37.333 0 -76.833 -10 -118.5 -30s-85.5 -49.667 -131.5 -89v-549c0 -48 6.5 -79.167 19.5 -93.5s41.5 -21.5 85.5 -21.5h53v-57h-500z" />
    <glyph glyph-name="i" unicode="i" horiz-adv-x="653" 
d="M80 0l0.00292969 57h51c52 0 86.5 8 103.5 24s25.5 46.333 25.5 91v518c0 69.333 -8.83301 113.333 -26.5 132s-55.834 28 -114.501 28h-31v55c53.333 2 107.666 6 162.999 12s111.666 13.667 168.999 23v-768c0 -48 6.33301 -79.167 19 -93.5s41 -21.5 85 -21.5h54v-57
h-498zM211.003 1358c0 34 12.667 63.668 38 89.001s55 38 89 38c35.333 0 65.333 -12.333 90 -37s37 -54.667 37 -90c0 -34.667 -12.167 -63.834 -36.5 -87.501s-54.5 -35.5 -90.5 -35.5c-35.333 0 -65.333 12 -90 36s-37 53 -37 87z" />
    <glyph glyph-name="j" unicode="j" horiz-adv-x="621" 
d="M207 1358c0 34 12.667 63.668 38 89.001s55 38 89 38c35.333 0 65.333 -12.333 90 -37s37 -54.667 37 -90c0 -34.667 -12.167 -63.834 -36.5 -87.501s-54.5 -35.5 -90.5 -35.5c-35.333 0 -65.333 12 -90 36s-37 53 -37 87zM416 125.001
c0 -94.667 -6.49805 -173.667 -19.498 -237s-33.167 -116.666 -60.5 -159.999c-30 -47.333 -69.5 -85.833 -118.5 -115.5s-95.5 -44.5 -139.5 -44.5c-32.667 0 -59.667 8.66699 -81 26s-32 38.666 -32 63.999c0 24 9.5 44.333 28.5 61s42.167 25 69.5 25
c22.667 0 49.5 -9.5 80.5 -28.5s52.833 -28.5 65.5 -28.5c20 0 33.833 8.33301 41.5 25s11.5 60 11.5 130c0 18 -1.33301 50.833 -4 98.5s-4 86.5 -4 116.5v633c0 70 -8.66699 114.167 -26 132.5s-55 27.5 -113 27.5h-31v55c53.333 2 107.666 6 162.999 12
s111.666 13.667 168.999 23v-815z" />
    <glyph glyph-name="k" unicode="k" horiz-adv-x="1147" 
d="M387 420l295.001 305.001c16 16 28.5 32.167 37.5 48.5s13.5 30.833 13.5 43.5c0 17.333 -8 29.833 -24 37.5s-41.333 11.5 -76 11.5h-21v58h432v-58h-34c-42 0 -79.167 -7 -111.5 -21s-65.5 -38.333 -99.5 -73l-224 -225l383 -400c32 -32.667 62.5 -55.834 91.5 -69.501
s61.5 -20.5 97.5 -20.5h22v-57h-510v57h60c25.333 0 42.833 2.33301 52.5 7s14.5 12.667 14.5 24c0 8.66699 -4 19 -12 31s-21.667 28.333 -41 49l-260 276l-86 -84v-188c0 -48 6.5 -79.167 19.5 -93.5s41.5 -21.5 85.5 -21.5h53v-57h-500v57h53
c51.333 0 85.333 7.83301 102 23.5s25 46.167 25 91.5v1071c0 70 -8.5 114.167 -25.5 132.5s-54.833 27.5 -113.5 27.5h-31l1 55c53.333 2 107.666 5.83301 162.999 11.5s111.333 13.5 168 23.5v-1073z" />
    <glyph glyph-name="l" unicode="l" horiz-adv-x="635" 
d="M59 0l0.000976562 57h54c50.667 0 84.5 7.83301 101.5 23.5s25.5 46.167 25.5 91.5v1071c0 70 -8.66699 114.167 -26 132.5s-55.333 27.5 -114 27.5h-30v55c53.333 2 107.666 5.83301 162.999 11.5s111.333 13.5 168 23.5v-1321c0 -48 6.5 -79.167 19.5 -93.5
s41.5 -21.5 85.5 -21.5h51v-57h-498z" />
    <glyph glyph-name="m" unicode="m" horiz-adv-x="1794" 
d="M74 0l0.00195312 57.002h53c51.333 0 85.333 7.83301 102 23.5s25 46.167 25 91.5v518c0 70 -8.66699 114.167 -26 132.5s-55 27.5 -113 27.5h-31v55c53.333 2 107.666 6 162.999 12s111.666 13.667 168.999 23v-168c58 53.333 115.167 93.666 171.5 120.999
s110.5 41 162.5 41c56 0 103.167 -14 141.5 -42s68.833 -70.667 91.5 -128c70.667 59.333 133.667 102.5 189 129.5s108.333 40.5 159 40.5c90.667 0 155 -30.667 193 -92s57 -168.666 57 -321.999v-340c0 -52.667 6.83301 -86.334 20.5 -101.001s45.167 -22 94.5 -22h43
v-57h-482v57h48c46 0 76.833 8.16699 92.5 24.5s23.5 50.5 23.5 102.5v381c0 94.667 -13.5 163.5 -40.5 206.5s-70.167 64.5 -129.5 64.5c-40.667 0 -81.834 -9.5 -123.501 -28.5s-84.5 -47.833 -128.5 -86.5v-541c0 -52.667 7 -86.334 21 -101.001s45.333 -22 94 -22h41
v-57h-463v57h31c46 0 76.667 8 92 24s23 50.333 23 103v381c0 94.667 -13.5 163.5 -40.5 206.5s-70.167 64.5 -129.5 64.5c-41.333 0 -82.666 -9.5 -123.999 -28.5s-84 -47.833 -128 -86.5v-549c0 -48 6.33301 -79.167 19 -93.5s41 -21.5 85 -21.5h51v-57h-497z" />
    <glyph glyph-name="n" unicode="n" horiz-adv-x="1229" 
d="M74 0l0.000976562 57.001h53c51.333 0 85.333 7.83301 102 23.5s25 46.167 25 91.5v518c0 70 -8.66699 114.167 -26 132.5s-55 27.5 -113 27.5h-31v55c53.333 2 107.666 6 162.999 12s111.666 13.667 168.999 23v-168c60 54 119 94.833 177 122.5s113.667 41.5 167 41.5
c92.667 0 158.5 -30.667 197.5 -92s58.5 -169.333 58.5 -324v-340c0 -52.667 6.83301 -86.334 20.5 -101.001s44.834 -22 93.501 -22h41v-57h-481v57h49c46 0 76.667 8 92 24s23 50.333 23 103v381c0 100 -14.5 170.833 -43.5 212.5s-77.167 62.5 -144.5 62.5
c-37.333 0 -77 -10 -119 -30s-85.667 -49.667 -131 -89v-549c0 -48 6.33301 -79.167 19 -93.5s41 -21.5 85 -21.5h51v-57h-497z" />
    <glyph glyph-name="o" unicode="o" horiz-adv-x="1038" 
d="M518 901c-84.667 0 -149.5 -37.332 -194.5 -111.999s-67.5 -183.334 -67.5 -326.001c0 -143.333 22.333 -252.166 67 -326.499s109.667 -111.5 195 -111.5c86.667 0 152.667 37.167 198 111.5s68 183.166 68 326.499c0 142 -22.667 250.5 -68 325.5
s-111.333 112.5 -198 112.5zM518 948.001c131.333 0 238.333 -45.168 321 -135.501s124 -207.5 124 -351.5c0 -143.333 -41.5 -260.166 -124.5 -350.499s-189.833 -135.5 -320.5 -135.5c-131.333 0 -237.833 45 -319.5 135s-122.5 207 -122.5 351c0 144.667 41 262 123 352
s188.333 135 319 135z" />
    <glyph glyph-name="p" unicode="p" horiz-adv-x="1163" 
d="M397 135c40.667 -35.333 80.668 -61.5 120.001 -78.5s78.666 -25.5 117.999 -25.5c90 0 159.167 36.5 207.5 109.5s72.5 177.833 72.5 314.5c0 138 -23.5 244.167 -70.5 318.5s-114.167 111.5 -201.5 111.5c-40 0 -80.5 -8.83301 -121.5 -26.5s-82.5 -44.5 -124.5 -80.5
v-643zM397.001 836c44.667 34 90.166 59.5 136.499 76.5s93.833 25.5 142.5 25.5c118.667 0 217.667 -45.667 297 -137s119 -206 119 -344c0 -140 -39.667 -255.333 -119 -346s-179.666 -136 -300.999 -136c-48.667 0 -95.667 8 -141 24s-90 40.333 -134 73v-310
c0 -49.333 6.83301 -81.333 20.5 -96s41.834 -22 84.501 -22h69v-56h-516v56h54c50 0 83.667 8 101 24s26 46.667 26 92v930c0 70 -8.66699 114.167 -26 132.5s-55.333 27.5 -114 27.5h-30v55c53.333 2 107.666 6 162.999 12s111.333 13.667 168 23v-104z" />
    <glyph glyph-name="q" unicode="q" horiz-adv-x="1098" 
d="M770 135l0.000976562 643c-42.667 36 -84.5 62.833 -125.5 80.5s-81.833 26.5 -122.5 26.5c-86.667 0 -153.334 -37 -200.001 -111s-70 -180.333 -70 -319c0 -136.667 24.167 -241.5 72.5 -314.5s117.5 -109.5 207.5 -109.5c40 0 79.5 8.5 118.5 25.5
s78.833 43.167 119.5 78.5zM801.001 821l63 119.001h68v-1180c0 -45.333 8.5 -76 25.5 -92s50.833 -24 101.5 -24h53v-56h-516v56h70c42.667 0 70.667 7.33301 84 22s20 46.667 20 96v310c-44 -32.667 -88.667 -57 -134 -73s-92 -24 -140 -24
c-122 0 -222.5 45.333 -301.5 136s-118.5 206 -118.5 346c0 138 39.667 252.667 119 344s178.333 137 297 137c49.333 0 98.833 -9.33301 148.5 -28s103.167 -48.334 160.5 -89.001z" />
    <glyph glyph-name="r" unicode="r" horiz-adv-x="840" 
d="M416 766c57.333 60.667 109.336 105.167 156.003 133.5s91 42.5 133 42.5c35.333 0 64.166 -9.16699 86.499 -27.5s33.5 -41.833 33.5 -70.5c0 -26.667 -10.5 -50.5 -31.5 -71.5s-45.167 -31.5 -72.5 -31.5c-20.667 0 -49.167 9.66699 -85.5 29s-63.833 29 -82.5 29
c-22 0 -44.333 -7 -67 -21s-46 -35 -70 -63v-543c0 -48 6.33301 -79.167 19 -93.5s41 -21.5 85 -21.5h72v-57h-518v57h53c51.333 0 85.333 7.83301 102 23.5s25 46.167 25 91.5v518c0 70 -8.66699 114.167 -26 132.5s-55 27.5 -113 27.5h-31v55
c53.333 2 107.666 6 162.999 12s111.666 13.667 168.999 23v-174z" />
    <glyph glyph-name="s" unicode="s" horiz-adv-x="854" 
d="M106 -18l-0.000976562 279.999h58c10 -72 40.667 -128.5 92 -169.5s117 -61.5 197 -61.5c66.667 0 120.834 17 162.501 51s62.5 78.333 62.5 133c0 81.333 -84 145 -252 191c-12.667 3.33301 -22.334 6 -29.001 8c-101.333 28 -174 63.333 -218 106s-66 98.667 -66 168
c0 78 25.333 140.167 76 186.5s119.334 69.5 206.001 69.5c36.667 0 73.167 -5 109.5 -15s70.166 -24.667 101.499 -44l31 63h57v-239h-55c-16.667 60 -48 106.333 -94 139s-103.333 49 -172 49c-50 0 -90.167 -13.167 -120.5 -39.5s-45.5 -60.833 -45.5 -103.5
c0 -41.333 14.5 -74.166 43.5 -98.499s97.167 -51.833 204.5 -82.5c126.667 -36.667 211.834 -76.5 255.501 -119.5s65.5 -102.167 65.5 -177.5c0 -89.333 -30.667 -161 -92 -215s-143.333 -81 -246 -81c-44 0 -86.167 6.5 -126.5 19.5s-80.833 33.5 -121.5 61.5l-26 -79
h-58z" />
    <glyph glyph-name="t" unicode="t" horiz-adv-x="786" 
d="M223 289l0.00292969 576.998h-160v58c75.333 14.667 134.166 51.834 176.499 111.501s65.5 138.5 69.5 236.5h76v-348h281v-58h-281v-592c0 -74 12.5 -128 37.5 -162s65.167 -51 120.5 -51c33.333 0 66 7.83301 98 23.5s62.667 38.834 92 69.501l37 -35
c-34.667 -46.667 -75.834 -81.167 -123.501 -103.5s-102.834 -33.5 -165.501 -33.5c-86 0 -150.5 25.5 -193.5 76.5s-64.5 127.833 -64.5 230.5z" />
    <glyph glyph-name="u" unicode="u" horiz-adv-x="1200" 
d="M815 690c0 70 -8.66602 114.165 -25.999 132.498s-55 27.5 -113 27.5h-31v55c56.667 2 112.834 6 168.501 12s110.167 13.667 163.5 23v-713c0 -71.333 8.66699 -116 26 -134s55.666 -27 114.999 -27h29v-53c-59.333 -3.33301 -116.666 -8.16602 -171.999 -14.499
s-108.666 -14.166 -159.999 -23.499v170c-60.667 -54.667 -119.667 -95.5 -177 -122.5s-113 -40.5 -167 -40.5c-92.667 0 -158.5 30.5 -197.5 91.5s-58.5 169.5 -58.5 325.5v291c0 70 -8.66699 114.167 -26 132.5s-55 27.5 -113 27.5h-31v55c53.333 2 107.666 6 162.999 12
s111.666 13.667 168.999 23v-588c0 -99.333 14.5 -169.5 43.5 -210.5s77.167 -61.5 144.5 -61.5c36.667 0 75.667 9.66699 117 29s85.666 49.333 132.999 90v491z" />
    <glyph glyph-name="v" unicode="v" horiz-adv-x="1020" 
d="M494 -25l-340.003 735.999c-2.66699 4.66699 -6.33398 12 -11.001 22c-41.333 90 -91.666 135 -150.999 135h-17v56h424v-56c-40 0 -67.667 -4.33301 -83 -13s-23 -24 -23 -46c0 -10 2 -22.333 6 -37s10.667 -33 20 -55l246 -553l213 518
c10.667 26.667 18.834 50.334 24.501 71.001s8.5 36.667 8.5 48c0 22 -8.5 38.667 -25.5 50s-42.5 17 -76.5 17h-27v56h346v-56h-4c-35.333 0 -65.166 -10.833 -89.499 -32.5s-49.166 -60.5 -74.499 -116.5l-319 -744h-47z" />
    <glyph glyph-name="w" unicode="w" horiz-adv-x="1448" 
d="M877 698l179.999 -507.998l160 484c9.33301 29.333 16.333 54 21 74s7 36.333 7 49c0 24 -8.5 41.833 -25.5 53.5s-43.167 17.5 -78.5 17.5h-27v56h346v-56c-40 0 -73.5 -12 -100.5 -36s-49.5 -61.667 -67.5 -113l-258 -744h-59l-238 674l-245 -674h-60l-258 736
c-20 58 -42 98.667 -66 122s-55.333 35 -94 35h-16v56h422v-56h-12c-36 0 -61.833 -4.5 -77.5 -13.5s-23.5 -24.167 -23.5 -45.5c0 -11.333 2.33301 -26.333 7 -45s11.334 -40 20.001 -64l180 -526l197 539c-20.667 60 -42.334 100.833 -65.001 122.5s-53 32.5 -91 32.5h-16
v56h434v-56h-17c-38.667 0 -66 -4.33301 -82 -13s-24 -23.334 -24 -44.001c0 -11.333 2.33301 -26.833 7 -46.5s11.334 -41.834 20.001 -66.501z" />
    <glyph glyph-name="x" unicode="x" 
d="M33 0l0.00390625 56.999h10c41.333 0 80.166 12.167 116.499 36.5s78.166 66.833 125.499 127.5l174 228l-205 290c-39.333 55.333 -73 90.333 -101 105s-63.333 22 -106 22h-14v58h481v-58h-18c-35.333 0 -60.666 -3.83301 -75.999 -11.5s-23 -20.167 -23 -37.5
c0 -8.66699 2 -17.667 6 -27s11 -20.666 21 -33.999l133 -195l137 193c10 14 17.333 26.667 22 38s7 21.666 7 30.999c0 14.667 -8 25.5 -24 32.5s-39.333 10.5 -70 10.5v58h375v-58h-9c-54 0 -101.333 -11.167 -142 -33.5s-80.667 -59.5 -120 -111.5l-149 -197l239 -338
c34 -47.333 66 -80.666 96 -99.999s63.667 -29 101 -29h16v-57h-481v57c42.667 0 73.167 4.33301 91.5 13s27.5 23 27.5 43c0 10 -2.83301 22 -8.5 36s-13.834 28.667 -24.501 44l-156 215l-145 -199c-18.667 -26 -30.834 -45.333 -36.501 -58s-8.5 -24.667 -8.5 -36
c0 -20.667 7.16699 -35.5 21.5 -44.5s39.166 -13.5 74.499 -13.5h17v-57h-375z" />
    <glyph glyph-name="y" unicode="y" 
d="M434 131l-248 579.998v0c-46 104.667 -99 157 -159 157h-17v56h422v-56c-40 0 -67.667 -4.33301 -83 -13s-23 -24 -23 -46c0 -16 7.33301 -43.333 22 -82c2 -4.66699 3.33301 -8 4 -10l228 -551l221 508c12 28.667 21.167 53.334 27.5 74.001s9.5 37.667 9.5 51
c0 22.667 -8.66699 39.834 -26 51.501s-43 17.5 -77 17.5h-24v56h346v-56h-8c-34 0 -64.5 -12 -91.5 -36s-51.833 -61.667 -74.5 -113l-367 -801c-51.333 -112.667 -112.333 -199.834 -183 -261.501s-144 -92.5 -220 -92.5c-40 0 -70.833 8.33301 -92.5 25
s-32.5 40.334 -32.5 71.001c0 31.333 9.16699 56.166 27.5 74.499s43.166 27.5 74.499 27.5c20 0 49.833 -8.5 89.5 -25.5s69.167 -25.5 88.5 -25.5c18 0 35.5 6 52.5 18s34.5 30.667 52.5 56c35.333 52 59.833 93.833 73.5 125.5s20.5 60.834 20.5 87.501
c0 20 -2.66699 40.833 -8 62.5s-13.666 45.167 -24.999 70.5z" />
    <glyph glyph-name="z" unicode="z" horiz-adv-x="995" 
d="M68 0l0.00195312 59l628 809h-213c-70 0 -127.333 -15.333 -172 -46s-88.334 -85.667 -131.001 -165l-55 9l98 258h654v-62l-621 -805h154c91.333 0 158.166 6.5 200.499 19.5s79.833 34.5 112.5 64.5c27.333 26.667 53.5 58 78.5 94s49.167 77.667 72.5 125l54 -10
l-90 -350h-770z" />
    <glyph glyph-name="braceleft" unicode="{" 
d="M846 1516l0.00195312 -51c-94.667 -1.33301 -159.334 -19.833 -194.001 -55.5s-52 -105.5 -52 -209.5v-143c0 -150.667 -20.333 -253.5 -61 -308.5s-116 -92.833 -226 -113.5c110 -20.667 185.333 -58.5 226 -113.5s61 -157.833 61 -308.5v-143
c0 -104 17.167 -173.5 51.5 -208.5s99.166 -53.167 194.499 -54.5v-51h-10c-144.667 0 -244 24.5 -298 73.5s-81 139.833 -81 272.5v213c0 105.333 -19.667 178 -59 218s-113.333 64.333 -222 73v60c110 10 184.333 34.667 223 74s58 111.333 58 216v213
c0 133.333 27 224.5 81 273.5s153.333 73.5 298 73.5h10z" />
    <glyph glyph-name="bar" unicode="|" 
d="M449 1565h126v-2048h-126v2048z" />
    <glyph glyph-name="braceright" unicode="}" 
d="M178 1516h10.002c144 0 243.167 -24.667 297.5 -74s81.5 -140.333 81.5 -273v-213c0 -104.667 19.333 -176.667 58 -216s113 -64 223 -74v-60c-108.667 -8.66699 -182.667 -33 -222 -73s-59 -112.667 -59 -218v-213c0 -132 -27.167 -222.667 -81.5 -272
s-153.5 -74 -297.5 -74h-10v51c95.333 1.33301 160.166 19.5 194.499 54.5s51.5 104.5 51.5 208.5v143c0 150.667 20.333 253.5 61 308.5s116 92.833 226 113.5c-110 20.667 -185.333 58.5 -226 113.5s-61 157.833 -61 308.5v143c0 104 -17.333 173.833 -52 209.5
s-99.334 54.167 -194.001 55.5v51z" />
    <glyph glyph-name="asciitilde" unicode="~" horiz-adv-x="1706" 
d="M1530 758l-0.00195312 -130.999c-67.333 -48 -133.166 -84 -197.499 -108s-127.5 -36 -189.5 -36c-28.667 0 -58.834 3 -90.501 9s-65.167 14.667 -100.5 26c-20 6.66699 -49 17 -87 31c-134.667 48 -235.334 72 -302.001 72c-55.333 0 -113.166 -12.5 -173.499 -37.5
s-130.833 -65.833 -211.5 -122.5v133c70 48.667 137.333 85 202 109s126.334 36 185.001 36c37.333 0 76.166 -4.16699 116.499 -12.5s98.5 -25.833 174.5 -52.5c8 -2.66699 19.667 -7 35 -13c109.333 -39.333 194 -59 254 -59c56.667 0 115.334 12.167 176.001 36.5
s130.334 64.166 209.001 119.499z" />
    <glyph glyph-name="Euro" horiz-adv-x="1251" 
d="M1190 328c-50 -116.667 -116 -206.001 -198 -268.001s-175 -93 -279 -93c-70.667 0 -135.834 13.667 -195.501 41s-112.834 67.666 -159.501 120.999c-48 56.667 -87.167 123 -117.5 199s-51.166 160.667 -62.499 254h-127l10 53h113
c-1.33301 24.667 -2.33301 43.667 -3 57s-1 25.666 -1 36.999c0 18.667 0.5 37 1.5 55s2.5 35.667 4.5 53l-133 1l12 53h127c11.333 84.667 32.166 162.334 62.499 233.001s69.5 133 117.5 187c49.333 55.333 103.833 97.166 163.5 125.499s122.834 42.5 189.501 42.5
c52 0 106.167 -12.667 162.5 -38s89.5 -38 99.5 -38c17.333 0 31.833 5.83301 43.5 17.5s22.5 31.834 32.5 60.501h45l65 -434l-47 -17c-40 118.667 -95.5 212.834 -166.5 282.501s-145.833 104.5 -224.5 104.5c-102 0 -181.333 -43.667 -238 -131s-90.667 -219 -102 -395
h539l-13 -53h-530c0 -12 -0.333008 -29.667 -1 -53s-1 -41.333 -1 -54c0 -11.333 0.333008 -27.666 1 -48.999s1 -37 1 -47h485l-12 -53h-469c13.333 -179.333 51.5 -315.333 114.5 -408s148.5 -139 256.5 -139c72.667 0 144.334 28.167 215.001 84.5s130 133.833 178 232.5
z" />
    <glyph glyph-name="Euro" unicode="&#x20ac;" horiz-adv-x="1251" 
d="M1190 328c-50 -116.667 -116 -206.001 -198 -268.001s-175 -93 -279 -93c-70.667 0 -135.834 13.667 -195.501 41s-112.834 67.666 -159.501 120.999c-48 56.667 -87.167 123 -117.5 199s-51.166 160.667 -62.499 254h-127l10 53h113
c-1.33301 24.667 -2.33301 43.667 -3 57s-1 25.666 -1 36.999c0 18.667 0.5 37 1.5 55s2.5 35.667 4.5 53l-133 1l12 53h127c11.333 84.667 32.166 162.334 62.499 233.001s69.5 133 117.5 187c49.333 55.333 103.833 97.166 163.5 125.499s122.834 42.5 189.501 42.5
c52 0 106.167 -12.667 162.5 -38s89.5 -38 99.5 -38c17.333 0 31.833 5.83301 43.5 17.5s22.5 31.834 32.5 60.501h45l65 -434l-47 -17c-40 118.667 -95.5 212.834 -166.5 282.501s-145.833 104.5 -224.5 104.5c-102 0 -181.333 -43.667 -238 -131s-90.667 -219 -102 -395
h539l-13 -53h-530c0 -12 -0.333008 -29.667 -1 -53s-1 -41.333 -1 -54c0 -11.333 0.333008 -27.666 1 -48.999s1 -37 1 -47h485l-12 -53h-469c13.333 -179.333 51.5 -315.333 114.5 -408s148.5 -139 256.5 -139c72.667 0 144.334 28.167 215.001 84.5s130 133.833 178 232.5
z" />
    <glyph glyph-name="nonbreakingspace" unicode="&#xa0;" horiz-adv-x="1251" 
 />
    <glyph glyph-name="exclamdown" unicode="&#xa1;" horiz-adv-x="729" 
d="M264 225l73.999 853.997h51l74 -854c0.666992 -14.667 2.16699 -35.5 4.5 -62.5s3.5 -43.5 3.5 -49.5c0 -45.333 -9 -79.666 -27 -102.999s-44.333 -35 -79 -35c-35.333 0 -62.333 11.833 -81 35.5s-28 57.834 -28 102.501c0 14 2 42.667 6 86
c0.666992 10.667 1.33398 19.334 2.00098 26.001zM488.999 1356c0 -35.333 -12.167 -65.334 -36.5 -90.001s-53.5 -37 -87.5 -37c-35.333 0 -65.333 12.333 -90 37s-37 54.667 -37 90c0 34.667 12.167 63.834 36.5 87.501s54.5 35.5 90.5 35.5c34.667 0 64 -12 88 -36
s36 -53 36 -87z" />
    <glyph glyph-name="cent" unicode="&#xa2;" horiz-adv-x="1251" 
d="M1042 176c-52 -59.333 -108.333 -103.5 -169 -132.5s-127 -43.5 -199 -43.5c-16 -0 -34 1.33301 -54 4s-43.667 6.66699 -71 12l-111 -278h-82l119 307c-76.667 38 -137.167 96.667 -181.5 176s-66.5 168 -66.5 266c0 139.333 43.833 255.166 131.5 347.499
s196.834 138.5 327.501 138.5c22.667 0 46.334 -1.66699 71.001 -5s49.667 -7.66602 75 -12.999l102 272h80l-111 -299c37.333 -19.333 65.5 -39.666 84.5 -60.999s28.5 -43.333 28.5 -66c0 -24 -8 -43.667 -24 -59s-36.667 -23 -62 -23
c-17.333 0 -33.833 4.16699 -49.5 12.5s-29.834 20.5 -42.501 36.5l-258 -664c21.333 -12 43.166 -21 65.499 -27s45.5 -9 69.5 -9c51.333 0 101 12.167 149 36.5s94.667 61.166 140 110.499zM791 850c-15.333 24 -33.833 42 -55.5 54s-47.167 18 -76.5 18
c-80 0 -141.5 -35 -184.5 -105s-64.5 -171 -64.5 -303c0 -76 8.83301 -144.167 26.5 -204.5s44.167 -111.5 79.5 -153.5z" />
    <glyph glyph-name="sterling" unicode="&#xa3;" horiz-adv-x="1251" 
d="M414 178c-53.333 34.667 -101.332 59.667 -143.999 75s-84.334 23 -125.001 23c-39.333 0 -71 -10.5 -95 -31.5s-36 -48.5 -36 -82.5c0 -36 14.333 -65.5 43 -88.5s66.334 -34.5 113.001 -34.5c52.667 0 99.667 11.833 141 35.5s75.666 58.167 102.999 103.5z
M504.001 135c-38.667 -54.667 -85.3291 -96.334 -139.996 -125.001s-115.334 -43 -182.001 -43c-76.667 0 -136.334 17.833 -179.001 53.5s-64 85.5 -64 149.5c0 54 23.5 100 70.5 138s105.167 57 174.5 57c42 0 86.167 -6.66699 132.5 -20s92.5 -32.666 138.5 -57.999
c3.33301 18 5.83301 33.667 7.5 47s2.5 25.666 2.5 36.999c0 45.333 -6.83301 96.666 -20.5 153.999s-33.5 118.666 -59.5 183.999h-313v69h293c-20 65.333 -34.667 122.166 -44 170.499s-14 90.5 -14 126.5c0 118 38.5 214.5 115.5 289.5s175.833 112.5 296.5 112.5
c47.333 0 93.166 -6.5 137.499 -19.5s86.5 -31.833 126.5 -56.5c50 -30.667 89.833 -66 119.5 -106s44.5 -77 44.5 -111c0 -27.333 -7.83301 -49.166 -23.5 -65.499s-36.5 -24.5 -62.5 -24.5c-23.333 0 -41.833 6.83301 -55.5 20.5s-28.5 44.834 -44.5 93.501
c-26 73.333 -58 126.833 -96 160.5s-85.333 50.5 -142 50.5c-71.333 0 -128.166 -23.167 -170.499 -69.5s-63.5 -109.166 -63.5 -188.499c0 -32.667 5.16699 -75.5 15.5 -128.5s30.5 -137.833 60.5 -254.5h324v-69l-311 -1c7.33301 -36 12.833 -71.167 16.5 -105.5
s5.5 -67.166 5.5 -98.499c0 -45.333 -4.33301 -88.333 -13 -129s-22 -82.334 -40 -125.001c69.333 -38 136.166 -67 200.499 -87s123.833 -30 178.5 -30c70.667 0 131 17.5 181 52.5s93.333 89.833 130 164.5l53 -16c-21.333 -122.667 -62.333 -214.5 -123 -275.5
s-141 -91.5 -241 -91.5c-52.667 0 -108.834 11.333 -168.501 34s-144.167 67.334 -253.5 134.001z" />
    <glyph glyph-name="currency" unicode="&#xa4;" horiz-adv-x="1251" 
d="M1190 328c-50 -116.667 -116 -206.001 -198 -268.001s-175 -93 -279 -93c-70.667 0 -135.834 13.667 -195.501 41s-112.834 67.666 -159.501 120.999c-48 56.667 -87.167 123 -117.5 199s-51.166 160.667 -62.499 254h-127l10 53h113
c-1.33301 24.667 -2.33301 43.667 -3 57s-1 25.666 -1 36.999c0 18.667 0.5 37 1.5 55s2.5 35.667 4.5 53l-133 1l12 53h127c11.333 84.667 32.166 162.334 62.499 233.001s69.5 133 117.5 187c49.333 55.333 103.833 97.166 163.5 125.499s122.834 42.5 189.501 42.5
c52 0 106.167 -12.667 162.5 -38s89.5 -38 99.5 -38c17.333 0 31.833 5.83301 43.5 17.5s22.5 31.834 32.5 60.501h45l65 -434l-47 -17c-40 118.667 -95.5 212.834 -166.5 282.501s-145.833 104.5 -224.5 104.5c-102 0 -181.333 -43.667 -238 -131s-90.667 -219 -102 -395
h539l-13 -53h-530c0 -12 -0.333008 -29.667 -1 -53s-1 -41.333 -1 -54c0 -11.333 0.333008 -27.666 1 -48.999s1 -37 1 -47h485l-12 -53h-469c13.333 -179.333 51.5 -315.333 114.5 -408s148.5 -139 256.5 -139c72.667 0 144.334 28.167 215.001 84.5s130 133.833 178 232.5
z" />
    <glyph glyph-name="yen" unicode="&#xa5;" horiz-adv-x="1251" 
d="M723 238c0 -79.333 11.9971 -129.336 35.9971 -150.003s78.333 -31 163 -31h63v-57h-706v57h63c84 0 137.833 10.167 161.5 30.5s35.5 70.5 35.5 150.5v260l-29 51h-438v53h413l-120 242h-293v53h268l-145 297c-40 80.667 -76.167 132.834 -108.5 156.501
s-75.5 36.5 -129.5 38.5v57h573v-57c-62 -1.33301 -105.5 -9 -130.5 -23s-37.5 -37.333 -37.5 -70c0.666992 -14 2.83398 -28.5 6.50098 -43.5s9.16699 -30.5 16.5 -46.5l313 -659l299 577c18.667 34.667 32.334 64.834 41.001 90.501s13 48.167 13 67.5
c0 36.667 -14.5 63.667 -43.5 81s-74.167 26 -135.5 26h-10v57h453v-57c-40 -1.33301 -75.167 -15.166 -105.5 -41.499s-68.166 -81.5 -113.499 -165.5l-152 -285h244v-53h-270l-130 -242h400v-53h-428l-37 -74v-237z" />
    <glyph glyph-name="brokenbar" unicode="&#xa6;" 
d="M449 408h126v-758h-126v758zM449 1432h126v-758h-126v758z" />
    <glyph glyph-name="section" unicode="&#xa7;" 
d="M250 729c0 -27.333 10.333 -57.332 31 -89.999s53.334 -71 98.001 -115c59.333 -58 105.5 -96.667 138.5 -116s65.167 -29 96.5 -29c44 0 81.333 14.667 112 44s46 65 46 107c0 29.333 -9.33301 59.666 -28 90.999s-50.334 69.333 -95.001 114
c-54 53.333 -99.167 91.333 -135.5 114s-69.5 34 -99.5 34c-47.333 0 -86.5 -14.667 -117.5 -44s-46.5 -66 -46.5 -110zM592 334.001c68 -53.333 118.503 -105 151.503 -155s49.5 -100 49.5 -150c0 -71.333 -29.5 -130.5 -88.5 -177.5s-134.167 -70.5 -225.5 -70.5
c-81.333 0 -149 20.167 -203 60.5s-81 89.833 -81 148.5c0 32.667 9.5 58.834 28.5 78.501s44.167 29.5 75.5 29.5c25.333 0 46.666 -8.33301 63.999 -25s26 -37 26 -61s-10.833 -47.667 -32.5 -71s-32.5 -38.333 -32.5 -45c0 -19.333 14.667 -35.833 44 -49.5
s66.333 -20.5 111 -20.5c56.667 0 102 14.167 136 42.5s51 66.166 51 113.499c0 36 -11.833 71.5 -35.5 106.5s-69.834 82.5 -138.501 142.5l-181 156c-60.667 52.667 -105.167 102.334 -133.5 149.001s-42.5 94 -42.5 142c0 70 26.333 128.5 79 175.5
s118.667 70.5 198 70.5h16c-70.667 59.333 -120.834 111.666 -150.501 156.999s-44.5 92 -44.5 140c0 76.667 27.167 138.834 81.5 186.501s125.5 71.5 213.5 71.5c76 0 139.5 -20 190.5 -60s76.5 -89 76.5 -147c0 -33.333 -9.5 -59.833 -28.5 -79.5
s-44.5 -29.5 -76.5 -29.5c-26 0 -47.5 7.5 -64.5 22.5s-25.5 33.5 -25.5 55.5c0 21.333 11 44.666 33 69.999s33 43 33 53c0 17.333 -14.167 33.666 -42.5 48.999s-61.5 23 -99.5 23c-49.333 0 -89.666 -14.833 -120.999 -44.5s-47 -67.5 -47 -113.5
c0 -36.667 12.833 -73.667 38.5 -111s73.167 -85.666 142.5 -144.999l178 -150c59.333 -50 103.166 -98.667 131.499 -146s42.5 -95.333 42.5 -144c0 -72 -25.833 -131.333 -77.5 -178s-117.5 -70 -197.5 -70h-22z" />
    <glyph glyph-name="dieresis" unicode="&#xa8;" 
d="M688 1313c26.667 0 49.667 -9.83301 69 -29.5s29 -42.834 29 -69.501c0 -28.667 -9.16699 -52.5 -27.5 -71.5s-41.833 -28.5 -70.5 -28.5s-52.5 9.5 -71.5 28.5s-28.5 42.833 -28.5 71.5c0 26.667 10 49.834 30 69.501s43.333 29.5 70 29.5zM336 1313
c26.667 0 50 -9.83301 70 -29.5s30 -42.834 30 -69.501c0 -28.667 -9.5 -52.5 -28.5 -71.5s-42.833 -28.5 -71.5 -28.5s-52.167 9.5 -70.5 28.5s-27.5 42.833 -27.5 71.5c0 26.667 9.66699 49.834 29 69.501s42.333 29.5 69 29.5z" />
    <glyph glyph-name="copyright" unicode="&#xa9;" horiz-adv-x="1683" 
d="M1120 1096l35.0049 -0.000976562l2 -314h-41c-22.667 91.333 -57.334 160 -104.001 206s-105.334 69 -176.001 69c-82 0 -143.833 -31.5 -185.5 -94.5s-62.5 -155.833 -62.5 -278.5c0 -126 22.333 -221 67 -285s111 -96 199 -96c57.333 0 109.333 14.333 156 43
s89 72.334 127 131.001l34 -24c-38.667 -70 -86.334 -122.333 -143.001 -157s-123 -52 -199 -52c-111.333 0 -206.333 41 -285 123s-118 181 -118 297c0 124 38.667 228 116 312s172.333 126 285 126c49.333 0 98.666 -11.333 147.999 -34s76.666 -34 81.999 -34
c18 0 32 4.83301 42 14.5s17 25.5 21 47.5zM844.005 1303c-82 0 -161.169 -16.167 -237.502 -48.5s-143.166 -77.833 -200.499 -136.5c-58.667 -59.333 -103.5 -126.833 -134.5 -202.5s-46.5 -154.834 -46.5 -237.501c0 -83.333 15.667 -162.833 47 -238.5
s76.666 -142.834 135.999 -201.501c58.667 -59.333 124.834 -104.333 198.501 -135s152.167 -46 235.5 -46c84 0 162.833 15.333 236.5 46s139.5 75.667 197.5 135c58.667 60 103.667 127.667 135 203s47 154.333 47 237s-15.833 162.834 -47.5 240.501
s-75.834 144.834 -132.501 201.501c-57.333 58 -124.166 103 -200.499 135s-154.166 48 -233.499 48zM844.003 1382c91.333 0 180.165 -17.833 266.498 -53.5s161.833 -85.834 226.5 -150.501c65.333 -64.667 116.166 -140.834 152.499 -228.501s54.5 -178.167 54.5 -271.5
s-17.667 -182.666 -53 -267.999s-86.666 -162 -153.999 -230c-65.333 -66.667 -140.333 -117.5 -225 -152.5s-174.667 -52.5 -270 -52.5s-185 17.5 -269 52.5s-159.667 85.833 -227 152.5s-118.666 142.334 -153.999 227.001s-53 175 -53 271
c0 93.333 17.667 182.833 53 268.5s86 162.167 152 229.5c65.333 66 141.333 116.833 228 152.5s177.334 53.5 272.001 53.5z" />
    <glyph glyph-name="ordfeminine" unicode="&#xaa;" horiz-adv-x="748" 
d="M477 924l0.000976562 234.998c-94.667 -15.333 -166.5 -40.166 -215.5 -74.499s-73.5 -77.166 -73.5 -128.499c0 -36 9.66699 -64.333 29 -85s46 -31 80 -31c25.333 0 53.166 7 83.499 21s62.5 35 96.5 63zM479.001 878.998
c-45.333 -30.667 -87.6709 -53.501 -127.004 -68.501s-76.666 -22.5 -111.999 -22.5c-53.333 0 -97.166 15.333 -131.499 46s-51.5 69.334 -51.5 116.001c0 60 31.5 108.333 94.5 145s171.5 69 325.5 97v88c0 52.667 -9.83301 89.667 -29.5 111s-53.5 32 -101.5 32
c-32 0 -54.5 -3.33301 -67.5 -10s-22.5 -21 -28.5 -43c-2 -8 -4.33301 -19.667 -7 -35c-11.333 -61.333 -35.666 -92 -72.999 -92c-19.333 0 -35.5 6.66699 -48.5 20s-19.5 30 -19.5 50c0 41.333 23.333 75.5 70 102.5s106 40.5 178 40.5
c54.667 0 100.5 -6.16699 137.5 -18.5s66.167 -31.5 87.5 -57.5c9.33301 -12 15.833 -27.5 19.5 -46.5s5.5 -55.167 5.5 -108.5v-289c0 -32.667 2.33301 -53.5 7 -62.5s13.334 -13.5 26.001 -13.5c14 0 27.333 7.66699 40 23s24.667 38.333 36 69l34 -10
c-12.667 -47.333 -33.667 -84.833 -63 -112.5s-62.666 -41.5 -99.999 -41.5c-26.667 0 -48.334 7.5 -65.001 22.5s-28.667 37.833 -36 68.5z" />
    <glyph glyph-name="guillemotleft" unicode="&#xab;" horiz-adv-x="877" 
d="M446 475c71.333 60.667 143.668 127.332 217.001 199.999s114.333 109 123 109c5.33301 0 9 -1.16699 11 -3.5s3.33301 -6.5 4 -12.5c0 -14 -15.833 -48.167 -47.5 -102.5s-73.167 -117.833 -124.5 -190.5c50.667 -72 92 -135.167 124 -189.5s48 -88.166 48 -101.499
c-0.666992 -5.33301 -2.33398 -9.33301 -5.00098 -12s-6 -4 -10 -4c-8 0 -48.667 36.167 -122 108.5s-146 138.5 -218 198.5zM66.002 474.998c70.667 60.667 142.667 127.334 216 200.001s114.666 109 123.999 109c4.66699 0 8.16699 -1.33301 10.5 -4s3.5 -6.66699 3.5 -12
c0 -14.667 -15.667 -49.334 -47 -104.001s-72.333 -117.667 -123 -189c50 -70.667 90.833 -133.5 122.5 -188.5s47.5 -89.167 47.5 -102.5c-0.666992 -5.33301 -2.16699 -9.33301 -4.5 -12s-5.5 -4 -9.5 -4c-8.66699 0 -49.667 36.167 -123 108.5
s-145.666 138.5 -216.999 198.5z" />
    <glyph glyph-name="logicalnot" unicode="&#xac;" horiz-adv-x="1706" 
d="M254 858h1198v-502h-115v385h-1083v117z" />
    <glyph glyph-name="sfthyphen" unicode="&#xad;" horiz-adv-x="688" 
d="M96 408v161h496v-161h-496z" />
    <glyph glyph-name="registered" unicode="&#xae;" horiz-adv-x="1683" 
d="M729 719c10.667 -0.666992 21.334 -1.16797 32.001 -1.50098s22 -0.5 34 -0.5c74.667 0 132.5 15.167 173.5 45.5s61.5 73.166 61.5 128.499c0 48.667 -17.667 87.834 -53 117.501s-83 44.5 -143 44.5c-34.667 0 -60.834 -6.16699 -78.501 -18.5
s-26.5 -30.166 -26.5 -53.499v-262zM469 1092l393 -0.000976562c98 0 175.5 -18.167 232.5 -54.5s85.5 -85.166 85.5 -146.499c0 -50.667 -23.167 -92 -69.5 -124s-118.833 -57 -217.5 -75c62 -19.333 109.333 -45.166 142 -77.499s56.334 -76.833 71.001 -133.5
c4 -14.667 7.66699 -35.667 11 -63c8.66699 -58.667 28.334 -88 59.001 -88c21.333 0 37.833 11.333 49.5 34s17.5 55.667 17.5 99h43v-12c0 -58.667 -13.5 -103.167 -40.5 -133.5s-66.833 -45.5 -119.5 -45.5c-30.667 0 -56.834 5.66699 -78.501 17
s-37.834 27.666 -48.501 48.999c-12 26.667 -19 64.5 -21 113.5s-5 80.833 -9 95.5c-13.333 45.333 -36.833 78.833 -70.5 100.5s-79.167 32.5 -136.5 32.5h-33v-248c0 -36 8.83301 -61.167 26.5 -75.5s50.5 -22.833 98.5 -25.5v-40h-385v40c48 2 81.167 10.167 99.5 24.5
s27.5 39.833 27.5 76.5v516c0 36.667 -8.66699 62 -26 76s-51 22.333 -101 25v43zM844 1303c-81.333 0 -160.002 -15.9971 -236.002 -47.9971s-143.333 -77.667 -202 -137s-103.5 -126.833 -134.5 -202.5s-46.5 -154.834 -46.5 -237.501
c0 -84.667 15.5 -164.334 46.5 -239.001s76.5 -141.667 136.5 -201c58.667 -59.333 124.834 -104.333 198.501 -135s152.167 -46 235.5 -46c84 0 162.833 15.333 236.5 46s139.5 75.667 197.5 135c58.667 60 103.667 127.667 135 203s47 154.333 47 237
s-15.833 163.167 -47.5 241.5s-75.834 145.166 -132.501 200.499c-57.333 58 -124.166 103 -200.499 135s-154.166 48 -233.499 48zM843.998 1382c92 0 181.499 -18.001 268.499 -54.001s163.167 -86.667 228.5 -152c64.667 -64.667 114.667 -140.667 150 -228
s53 -178 53 -272c0 -91.333 -18.5 -180.5 -55.5 -267.5s-89.5 -164.5 -157.5 -232.5c-66 -66 -140.833 -116 -224.5 -150s-173.834 -51 -270.501 -51c-91.333 0 -179 17.5 -263 52.5s-159.667 85.833 -227 152.5s-118.666 142.334 -153.999 227.001s-53 175 -53 271
c0 93.333 17.667 182.833 53 268.5s86 162.167 152 229.5c65.333 66 141.333 116.833 228 152.5s177.334 53.5 272.001 53.5z" />
    <glyph glyph-name="macron" unicode="&#xaf;" 
d="M254 1276h516v-125h-516v125z" />
    <glyph glyph-name="degree" unicode="&#xb0;" horiz-adv-x="674" 
d="M338 1372c-56 0 -103.833 -19.5 -143.5 -58.5s-59.5 -86.5 -59.5 -142.5s19.833 -103.667 59.5 -143s87.5 -59 143.5 -59s103.5 19.667 142.5 59s58.5 87 58.5 143s-19.5 103.5 -58.5 142.5s-86.5 58.5 -142.5 58.5zM338 1454c78 0 144.668 -27.6689 200.001 -83.002
s83 -122 83 -200c0 -77.333 -27.833 -143.666 -83.5 -198.999s-122.834 -83 -201.501 -83s-145.167 27.333 -199.5 82s-81.5 121.334 -81.5 200.001c0 79.333 27.5 146.333 82.5 201s121.833 82 200.5 82z" />
    <glyph glyph-name="plusminus" unicode="&#xb1;" horiz-adv-x="1706" 
d="M254 158h1198v-117h-1198v117zM795 1180h118v-344h539v-117h-539v-344h-118v344h-541v117h541v344z" />
    <glyph glyph-name="twosuperior" unicode="&#xb2;" horiz-adv-x="825" 
d="M92 580l-0.000976562 45.001c155.333 135.333 269 252.5 341 351.5s108 187.167 108 264.5c0 54.667 -14.333 97 -43 127s-68.334 45 -119.001 45c-53.333 0 -100.666 -17.333 -141.999 -52s-69.666 -81.334 -84.999 -140.001l-48 6
c16.667 73.333 53.5 131.5 110.5 174.5s125.5 64.5 205.5 64.5c75.333 0 137.833 -21.667 187.5 -65s74.5 -98 74.5 -164c0 -100 -149 -280 -447 -540l-22 -19h270c44 0 77.667 7 101 21s47 41 71 81l37 -8l-51 -192h-549z" />
    <glyph glyph-name="threesuperior" unicode="&#xb3;" horiz-adv-x="825" 
d="M264 1024l0.00195312 33c85.333 25.333 150.333 57.833 195 97.5s67 84.167 67 133.5c0 36.667 -10.833 65.667 -32.5 87s-50.834 32 -87.501 32c-32.667 0 -65.667 -9 -99 -27s-68.666 -46 -105.999 -84l-29 25c48.667 49.333 97 85.833 145 109.5s98 35.5 150 35.5
c54.667 0 99.667 -14 135 -42s53 -63.667 53 -107c0 -41.333 -19 -80.5 -57 -117.5s-95.333 -72.167 -172 -105.5c82.667 -11.333 146.334 -38.833 191.001 -82.5s67 -100.167 67 -169.5c0 -31.333 -7.33301 -63 -22 -95s-35.334 -61.333 -62.001 -88
c-32 -32 -69.833 -56.667 -113.5 -74s-89.834 -26 -138.501 -26c-40.667 0 -78.834 6 -114.501 18s-68.5 30 -98.5 54c-22.667 17.333 -40.667 36 -54 56s-20 38 -20 54s5.16699 29.333 15.5 40s23.166 16 38.499 16c31.333 0 62.666 -36.667 93.999 -110l8 -19
c10.667 -22 28.834 -39.833 54.501 -53.5s53.834 -20.5 84.501 -20.5c58 0 105.667 19 143 57s56 86.667 56 146c0 73.333 -24.5 129.5 -73.5 168.5s-120.167 58.5 -213.5 58.5h-4z" />
    <glyph glyph-name="acute" unicode="&#xb4;" 
d="M733 1264l-330.001 -205.001h-67l289 299c23.333 23.333 42 39 56 47s28 12 42 12c20.667 0 37.834 -6.83301 51.501 -20.5s20.5 -30.5 20.5 -50.5c0 -14.667 -5.16699 -28.667 -15.5 -42s-25.833 -26.666 -46.5 -39.999z" />
    <glyph glyph-name="mu" unicode="&#xb5;" horiz-adv-x="1120" 
d="M164 193c-18 -90.667 -35.3301 -203.666 -51.9971 -338.999c-22.667 -181.333 -60 -272 -112 -272c-24.667 0 -44.167 7.83301 -58.5 23.5s-21.5 37.167 -21.5 64.5c0 26.667 21.5 117.834 64.5 273.501s78.167 298.167 105.5 427.5l109 514h147l-104 -492
c-4 -20 -7.16699 -39.5 -9.5 -58.5s-3.5 -36.833 -3.5 -53.5c0 -55.333 14 -98.333 42 -129s67.333 -46 118 -46c65.333 0 119.833 22.833 163.5 68.5s75.167 112.5 94.5 200.5l111 510h149l-114 -531c-8.66699 -39.333 -14.334 -68.5 -17.001 -87.5s-4 -35.5 -4 -49.5
c0 -32 8.66699 -58 26 -78s39.333 -30 66 -30c23.333 0 45.166 6 65.499 18s37.5 29 51.5 51s27.667 53.167 41 93.5s26.333 60.5 39 60.5c8 0 14.333 -3.33301 19 -10s7 -15.667 7 -27c0 -16.667 -3.66699 -38.834 -11 -66.501s-17 -55.5 -29 -83.5
c-25.333 -54.667 -57 -95.5 -95 -122.5s-83 -40.5 -135 -40.5c-45.333 0 -81.5 17 -108.5 51s-40.5 80.333 -40.5 139v23c-30.667 -73.333 -69.334 -128 -116.001 -164s-101.667 -54 -165 -54c-64 0 -114.833 18.167 -152.5 54.5s-61.167 90.166 -70.5 161.499z" />
    <glyph glyph-name="paragraph" unicode="&#xb6;" 
d="M948 1479l-0.00195312 -78h-125v-1401h-94v1401h-182v-1401h-96v782c-115.333 5.33301 -206.666 39.5 -273.999 102.5s-101 144.833 -101 245.5c0 104.667 35.833 189 107.5 253s166.834 96 285.501 96h479z" />
    <glyph glyph-name="periodcentered" unicode="&#xb7;" horiz-adv-x="627" 
d="M186 723c0 34.667 12.667 64.5 38 89.5s55 37.5 89 37.5c35.333 0 65 -12.333 89 -37s36 -54.667 36 -90s-11.833 -65 -35.5 -89s-53.5 -36 -89.5 -36c-35.333 0 -65.333 12.167 -90 36.5s-37 53.833 -37 88.5z" />
    <glyph glyph-name="cedilla" unicode="&#xb8;" 
d="M432 0l63.999 0.00195312v-112c12 2 22.667 3.33301 32 4l29 2c57.333 0 102 -14.5 134 -43.5s48 -69.167 48 -120.5c0 -54.667 -19.5 -97.667 -58.5 -129s-92.5 -47 -160.5 -47c-36 0 -76.5 5.66699 -121.5 17s-102.167 30.666 -171.5 57.999l33 78
c40.667 -22.667 80.5 -40.334 119.5 -53.001s73.5 -19 103.5 -19c42.667 0 73.834 7.5 93.501 22.5s29.5 38.5 29.5 70.5c0 28 -10 50 -30 66s-48 24 -84 24c-8.66699 0 -18 -0.5 -28 -1.5s-20.667 -2.5 -32 -4.5v188z" />
    <glyph glyph-name="onesuperior" unicode="&#xb9;" horiz-adv-x="825" 
d="M231 580l-0.000976562 33.998h35c38.667 0 65.167 7.5 79.5 22.5s21.5 43.167 21.5 84.5v508c0 23.333 -3.66699 40 -11 50s-19.666 15 -36.999 15c-8 0 -19.333 -1.83301 -34 -5.5s-36.667 -10.5 -66 -20.5l-14 26c44.667 28.667 87 57.334 127 86.001
s77.333 57.334 112 86.001h43v-745c0 -45.333 6.66699 -74.5 20 -87.5s39 -19.5 77 -19.5h32v-34h-385z" />
    <glyph glyph-name="ordmasculine" unicode="&#xba;" horiz-adv-x="778" 
d="M389 1430c-64 0 -112.667 -26.167 -146 -78.5s-50 -128.833 -50 -229.5c0 -99.333 16.667 -175.333 50 -228s82 -79 146 -79c64.667 0 114 26.167 148 78.5s51 128.5 51 228.5s-17 176.333 -51 229s-83.333 79 -148 79zM389 1462c98 0 178.167 -31.5 240.5 -94.5
s93.5 -144.833 93.5 -245.5s-31.167 -182.5 -93.5 -245.5s-142.5 -94.5 -240.5 -94.5s-177.833 31.333 -239.5 94s-92.5 144.667 -92.5 246c0 100.667 30.833 182.5 92.5 245.5s141.5 94.5 239.5 94.5z" />
    <glyph glyph-name="guillemotright" unicode="&#xbb;" horiz-adv-x="877" 
d="M811 475c-72 -60 -144.499 -126.165 -217.499 -198.498s-113.833 -108.5 -122.5 -108.5c-4.66699 0 -8.16699 1.33301 -10.5 4s-3.5 6.66699 -3.5 12c0 13.333 15.833 47.166 47.5 101.499s73.167 117.5 124.5 189.5c-51.333 72.667 -92.833 136.167 -124.5 190.5
s-47.5 88.5 -47.5 102.5c0 5.33301 1.16699 9.33301 3.5 12s5.83301 4 10.5 4c8.66699 0 49.667 -36.333 123 -109s145.666 -139.334 216.999 -200.001zM432.001 475.002c-71.333 -60 -143.666 -126.165 -216.999 -198.498s-114.333 -108.5 -123 -108.5
c-4.66699 0 -8.16699 1.33301 -10.5 4s-3.5 6.66699 -3.5 12c0 13.333 16 47.166 48 101.499s73.333 117.5 124 189.5c-51.333 72.667 -92.833 136.167 -124.5 190.5s-47.5 88.5 -47.5 102.5c0 5.33301 1.16699 9.33301 3.5 12s5.83301 4 10.5 4
c8.66699 0 49.667 -36.333 123 -109s145.666 -139.334 216.999 -200.001z" />
    <glyph glyph-name="onequarter" unicode="&#xbc;" horiz-adv-x="1919" 
d="M1571 289v407l-307 -407h307zM1446 0v33h31c34 0 58.167 6.66699 72.5 20s21.5 36.666 21.5 69.999v100h-371v47l418 553h70v-534h188v-66h-188v-100c0 -35.333 6.66699 -59.166 20 -71.499s37.333 -18.5 72 -18.5h35v-33h-369zM446 -33l920 1512h104l-919 -1512h-105z
M219 637l-0.000976562 33h33c36.667 0 61.834 6.83301 75.501 20.5s20.5 39.5 20.5 77.5v475c0 21.333 -3.5 37 -10.5 47s-18.5 15 -34.5 15c-12 0 -37.333 -6.33301 -76 -19l-18 -6l-14 25c42 26.667 81.833 53.167 119.5 79.5s73.5 52.833 107.5 79.5h41v-696
c0 -41.333 6.33301 -68 19 -80s37 -18 73 -18h31v-33h-367z" />
    <glyph glyph-name="onehalf" unicode="&#xbd;" horiz-adv-x="1919" 
d="M1219 0l-0.000976562 41c148 127.333 256.333 237.333 325 330s103 174.334 103 245.001c0 52 -13.667 92 -41 120s-65.666 42 -114.999 42c-50.667 0 -95.5 -16.333 -134.5 -49s-65.833 -76.334 -80.5 -131.001l-45 6c15.333 68.667 50 123 104 163s119 60 195 60
c72 0 132 -20.167 180 -60.5s72 -91.166 72 -152.499c0 -92.667 -142.667 -260.667 -428 -504l-21 -18h260c42 0 74.167 6.66699 96.5 20s44.833 38.666 67.5 75.999l35 -8l-49 -180h-524zM445.999 -33l920 1512h104l-919 -1512h-105zM218.999 637l-0.000976562 33h33
c36.667 0 61.834 6.83301 75.501 20.5s20.5 39.5 20.5 77.5v475c0 21.333 -3.5 37 -10.5 47s-18.5 15 -34.5 15c-12 0 -37.333 -6.33301 -76 -19l-18 -6l-14 25c42 26.667 81.833 53.167 119.5 79.5s73.5 52.833 107.5 79.5h41v-696c0 -41.333 6.33301 -68 19 -80
s37 -18 73 -18h31v-33h-367z" />
    <glyph glyph-name="threequarters" unicode="&#xbe;" horiz-adv-x="1919" 
d="M1571 289v407l-307 -407h307zM1446 0v33h31c34 0 58.167 6.66699 72.5 20s21.5 36.666 21.5 69.999v100h-371v47l418 553h70v-534h188v-66h-188v-100c0 -35.333 6.66699 -59.166 20 -71.499s37.333 -18.5 72 -18.5h35v-33h-369zM446 -33l920 1512h104l-919 -1512h-105z
M252 1051l0.00292969 31.999c81.333 23.333 143.333 53.5 186 90.5s64 78.5 64 124.5c0 34.667 -10.333 61.834 -31 81.501s-48.667 29.5 -84 29.5c-30.667 0 -62.167 -8.33301 -94.5 -25s-66.5 -42.334 -102.5 -77.001l-26 22c47.333 46 94 80 140 102s93.333 33 142 33
c52 0 95.167 -13.167 129.5 -39.5s51.5 -59.5 51.5 -99.5c0 -38 -18.167 -74.333 -54.5 -109s-91.833 -68 -166.5 -100c79.333 -10 140.333 -35.333 183 -76s64 -93.667 64 -159c0 -28.667 -7 -58 -21 -88s-33.667 -57.333 -59 -82c-30.667 -30 -66.834 -53 -108.501 -69
s-85.834 -24 -132.501 -24c-38.667 0 -74.834 5.5 -108.501 16.5s-65.167 27.5 -94.5 49.5c-22 16.667 -39.167 34.334 -51.5 53.001s-18.5 35.667 -18.5 51c0 14.667 5 27 15 37s22.333 15 37 15c28.667 0 58 -34.333 88 -103c3.33301 -8 6 -14 8 -18
c9.33301 -20.667 26.333 -37.5 51 -50.5s52 -19.5 82 -19.5c54.667 0 99.667 17.833 135 53.5s53 81.5 53 137.5c0 68.667 -23.167 121 -69.5 157s-113.833 54 -202.5 54h-4z" />
    <glyph glyph-name="questiondown" unicode="&#xbf;" horiz-adv-x="1006" 
d="M739 1350c0 -35.333 -12.333 -65.333 -37 -90s-54.667 -37 -90 -37c-34.667 0 -64.5 12.167 -89.5 36.5s-37.5 54.5 -37.5 90.5c0 34.667 12.333 64.167 37 88.5s54.667 36.5 90 36.5s65.333 -12.333 90 -37s37 -54 37 -88zM647 1081l-0.000976562 -508l-7 1
c-36 2.66699 -61.667 4 -77 4c-89.333 0 -155.666 -20.333 -198.999 -61s-65 -103 -65 -187c0 -76 16.333 -136 49 -180s76.334 -66 131.001 -66c38 0 88.333 16 151 48s105.334 48 128.001 48c24 0 43 -6.66699 57 -20s21 -32 21 -56c0 -34 -19.833 -64 -59.5 -90
s-88.834 -39 -147.501 -39c-41.333 0 -81.833 5.83301 -121.5 17.5s-78.5 29.167 -116.5 52.5c-73.333 45.333 -129.833 102 -169.5 170s-59.5 142.333 -59.5 223c0 104.667 33.167 187.167 99.5 247.5s157.5 90.5 273.5 90.5c3.33301 0 9.66602 -0.333008 18.999 -1
s16.333 -1 21 -1v307h72z" />
    <glyph glyph-name="Agrave" unicode="&#xc0;" horiz-adv-x="1464" 
d="M442 604h484l-244 692zM6 0v57.002c66 1.33301 118.667 19.666 158 54.999s74.666 97 105.999 185l420 1178h117l430 -1184c37.333 -104 70.833 -169 100.5 -195s71.834 -39 126.501 -39h13v-57h-594v57c63.333 0 109.166 8.33301 137.499 25s42.5 43.334 42.5 80.001
c0 13.333 -2.5 31.166 -7.5 53.499s-12.167 46.166 -21.5 71.499l-90 262h-522l-84 -244c-9.33301 -27.333 -16.166 -51 -20.499 -71s-6.5 -37.333 -6.5 -52c0 -40 14.167 -70.833 42.5 -92.5s68.833 -32.5 121.5 -32.5h21v-57h-490zM620 1888l288.999 -298.999h-67
l-330 205c-20.667 13.333 -36.167 26.666 -46.5 39.999s-15.5 27.333 -15.5 42c0 20 6.83301 36.833 20.5 50.5s30.834 20.5 51.501 20.5c14 0 28 -4 42 -12s32.667 -23.667 56 -47z" />
    <glyph glyph-name="Aacute" unicode="&#xc1;" horiz-adv-x="1464" 
d="M442 604h484l-244 692zM6 0v57.002c66 1.33301 118.667 19.666 158 54.999s74.666 97 105.999 185l420 1178h117l430 -1184c37.333 -104 70.833 -169 100.5 -195s71.834 -39 126.501 -39h13v-57h-594v57c63.333 0 109.166 8.33301 137.499 25s42.5 43.334 42.5 80.001
c0 13.333 -2.5 31.166 -7.5 53.499s-12.167 46.166 -21.5 71.499l-90 262h-522l-84 -244c-9.33301 -27.333 -16.166 -51 -20.499 -71s-6.5 -37.333 -6.5 -52c0 -40 14.167 -70.833 42.5 -92.5s68.833 -32.5 121.5 -32.5h21v-57h-490zM954 1794l-330.001 -205.001h-67
l289 299c23.333 23.333 42 39 56 47s28 12 42 12c20.667 0 37.834 -6.83301 51.501 -20.5s20.5 -30.5 20.5 -50.5c0 -14.667 -5.16699 -28.667 -15.5 -42s-25.833 -26.666 -46.5 -39.999z" />
    <glyph glyph-name="Acircumflex" unicode="&#xc2;" horiz-adv-x="1464" 
d="M442 604h484l-244 692zM6 0v57.002c66 1.33301 118.667 19.666 158 54.999s74.666 97 105.999 185l420 1178h117l430 -1184c37.333 -104 70.833 -169 100.5 -195s71.834 -39 126.501 -39h13v-57h-594v57c63.333 0 109.166 8.33301 137.499 25s42.5 43.334 42.5 80.001
c0 13.333 -2.5 31.166 -7.5 53.499s-12.167 46.166 -21.5 71.499l-90 262h-522l-84 -244c-9.33301 -27.333 -16.166 -51 -20.499 -71s-6.5 -37.333 -6.5 -52c0 -40 14.167 -70.833 42.5 -92.5s68.833 -32.5 121.5 -32.5h21v-57h-490zM674 1937h118l232 -348h-58l-233 211
l-233 -211h-58z" />
    <glyph glyph-name="Atilde" unicode="&#xc3;" horiz-adv-x="1464" 
d="M442 604h484l-244 692zM6 0v57.002c66 1.33301 118.667 19.666 158 54.999s74.666 97 105.999 185l420 1178h117l430 -1184c37.333 -104 70.833 -169 100.5 -195s71.834 -39 126.501 -39h13v-57h-594v57c63.333 0 109.166 8.33301 137.499 25s42.5 43.334 42.5 80.001
c0 13.333 -2.5 31.166 -7.5 53.499s-12.167 46.166 -21.5 71.499l-90 262h-522l-84 -244c-9.33301 -27.333 -16.166 -51 -20.499 -71s-6.5 -37.333 -6.5 -52c0 -40 14.167 -70.833 42.5 -92.5s68.833 -32.5 121.5 -32.5h21v-57h-490zM966 1886h54
c-13.333 -69.333 -36.166 -120.833 -68.499 -154.5s-74.5 -50.5 -126.5 -50.5c-10 0 -21 0.833008 -33 2.5s-25.333 4.16699 -40 7.5l-109 29c-8.66699 2 -17.834 3.5 -27.501 4.5s-19.5 1.5 -29.5 1.5c-22 0 -39.833 -7 -53.5 -21s-25.5 -37 -35.5 -69h-51
c12.667 70.667 35.334 123.5 68.001 158.5s75.667 52.5 129 52.5c12.667 0 24 -0.666992 34 -2s19.667 -3.33301 29 -6l111 -29c12 -3.33301 22.667 -5.83301 32 -7.5s17 -2.5 23 -2.5c24.667 0 44.167 6.5 58.5 19.5s26.166 35.167 35.499 66.5z" />
    <glyph glyph-name="Adieresis" unicode="&#xc4;" horiz-adv-x="1464" 
d="M442 604h484l-244 692zM6 0v57.002c66 1.33301 118.667 19.666 158 54.999s74.666 97 105.999 185l420 1178h117l430 -1184c37.333 -104 70.833 -169 100.5 -195s71.834 -39 126.501 -39h13v-57h-594v57c63.333 0 109.166 8.33301 137.499 25s42.5 43.334 42.5 80.001
c0 13.333 -2.5 31.166 -7.5 53.499s-12.167 46.166 -21.5 71.499l-90 262h-522l-84 -244c-9.33301 -27.333 -16.166 -51 -20.499 -71s-6.5 -37.333 -6.5 -52c0 -40 14.167 -70.833 42.5 -92.5s68.833 -32.5 121.5 -32.5h21v-57h-490zM909 1843
c26.667 0 49.667 -9.83301 69 -29.5s29 -42.834 29 -69.501c0 -28.667 -9.16699 -52.5 -27.5 -71.5s-41.833 -28.5 -70.5 -28.5s-52.5 9.5 -71.5 28.5s-28.5 42.833 -28.5 71.5c0 26.667 10 49.834 30 69.501s43.333 29.5 70 29.5zM557 1843c26.667 0 50 -9.83301 70 -29.5
s30 -42.834 30 -69.501c0 -28.667 -9.5 -52.5 -28.5 -71.5s-42.833 -28.5 -71.5 -28.5s-52.167 9.5 -70.5 28.5s-27.5 42.833 -27.5 71.5c0 26.667 9.66699 49.834 29 69.501s42.333 29.5 69 29.5z" />
    <glyph glyph-name="Aring" unicode="&#xc5;" horiz-adv-x="1464" 
d="M745 1827c-40.667 0 -75.334 -14.5 -104.001 -43.5s-43 -64.5 -43 -106.5c0 -40.667 14.333 -75.667 43 -105s63.334 -44 104.001 -44c42 0 77.5 14.5 106.5 43.5s43.5 64.167 43.5 105.5c0 42 -14.5 77.5 -43.5 106.5s-64.5 43.5 -106.5 43.5zM442 604h484l-244 692z
M6 0v56.998c66 1.33301 118.667 19.666 158 54.999s74.666 97 105.999 185l410 1149c-53.333 16 -95.666 44.833 -126.999 86.5s-47 89.834 -47 144.501c0 68 23 125 69 171s102.667 69 170 69c68 0 125.333 -23.167 172 -69.5s70 -103.166 70 -170.499
c0 -53.333 -15.167 -100.5 -45.5 -141.5s-71.833 -70.167 -124.5 -87.5l420 -1157c26.667 -71.333 47.167 -119.666 61.5 -144.999s29.166 -44 44.499 -56c14.667 -11.333 32.834 -19.666 54.501 -24.999s48.167 -8 79.5 -8v-57h-594v57
c63.333 0 109.166 8.33301 137.499 25s42.5 43.334 42.5 80.001c0 13.333 -2.5 31.166 -7.5 53.499s-12.167 46.166 -21.5 71.499l-90 262h-522l-84 -244c-9.33301 -27.333 -16.166 -51 -20.499 -71s-6.5 -37.333 -6.5 -52c0 -40 14.167 -70.833 42.5 -92.5
s68.833 -32.5 121.5 -32.5h21v-57h-490z" />
    <glyph glyph-name="AE" unicode="&#xc6;" horiz-adv-x="1991" 
d="M410 614h460v768h-18zM1327 66c131.333 0 232.332 30.501 302.999 91.501s126 166.167 166 315.5l76 -14l-94 -459h-1123v57h43c70 0 116.167 10.667 138.5 32s33.5 71 33.5 149v321h-495l-131 -221c-18.667 -31.333 -32.667 -59.833 -42 -85.5s-14 -49.167 -14 -70.5
c0 -34.667 11.833 -62.334 35.5 -83.001s59.167 -34.667 106.5 -42v-57h-420v57c39.333 6 77.833 27.667 115.5 65s80.5 97 128.5 179l548 932c12.667 20 22.334 38.667 29.001 56s10 32 10 44c0 18 -8 31.833 -24 41.5s-39.333 14.5 -70 14.5h-67v57h1169l39 -371h-74
c-28.667 114 -71.5 193.333 -128.5 238s-146.5 67 -268.5 67h-76c-68.667 0 -114.167 -10.833 -136.5 -32.5s-33.5 -68.167 -33.5 -139.5v-409c6 -0.666992 12.667 -1.16699 20 -1.5s17.666 -0.5 30.999 -0.5c91.333 0 157.5 19.667 198.5 59s61.5 103 61.5 191v6h66v-576
h-63c-1.33301 94 -22.5 160.833 -63.5 200.5s-110.167 59.5 -207.5 59.5h-43v-489c0 -82 14.333 -132.833 43 -152.5s85.334 -29.5 170.001 -29.5h43z" />
    <glyph glyph-name="Ccedilla" unicode="&#xc7;" horiz-adv-x="1470" 
d="M1386 328c-62 -116 -144.667 -205.165 -248 -267.498s-220.666 -93.5 -351.999 -93.5c-88.667 0 -170.167 13.667 -244.5 41s-140.166 67.666 -197.499 120.999c-77.333 71.333 -135.833 157.5 -175.5 258.5s-59.5 214.167 -59.5 339.5c0 124.667 19.333 236 58 334
s95.667 180.667 171 248c61.333 54.667 129.166 96.334 203.499 125.001s153.166 43 236.499 43c66 0 136.5 -12.667 211.5 -38s118.5 -38 130.5 -38c22 0 40.167 5.5 54.5 16.5s28.5 30.833 42.5 59.5h65l84 -441l-63 -8c-52.667 125.333 -122.5 221.166 -209.5 287.499
s-186.5 99.5 -298.5 99.5c-152 0 -268.167 -58.667 -348.5 -176s-120.5 -287.333 -120.5 -510c0 -219.333 43.5 -389.833 130.5 -511.5s209.167 -182.5 366.5 -182.5c103.333 0 198.833 27.667 286.5 83s165.5 136.666 233.5 243.999zM723 0.00195312l63.999 0.00195312
v-112c12 2 22.667 3.33301 32 4l29 2c57.333 0 102 -14.5 134 -43.5s48 -69.167 48 -120.5c0 -54.667 -19.5 -97.667 -58.5 -129s-92.5 -47 -160.5 -47c-36 0 -76.5 5.66699 -121.5 17s-102.167 30.666 -171.5 57.999l33 78c40.667 -22.667 80.5 -40.334 119.5 -53.001
s73.5 -19 103.5 -19c42.667 0 73.834 7.5 93.501 22.5s29.5 38.5 29.5 70.5c0 28 -10 50 -30 66s-48 24 -84 24c-8.66699 0 -18 -0.5 -28 -1.5s-20.667 -2.5 -32 -4.5v188z" />
    <glyph glyph-name="Egrave" unicode="&#xc8;" horiz-adv-x="1536" 
d="M88 0l-0.00195312 57h64c84 0 138 10.333 162 31s36 70.667 36 150v970c0 79.333 -12 129.333 -36 150s-78 31 -162 31h-64v57h1204l39 -371h-71c-28.667 114 -71.667 193.333 -129 238s-147 67 -269 67h-141c-69.333 0 -115.333 -10.833 -138 -32.5
s-34 -68.167 -34 -139.5v-409l7 -1c38.667 -2 66.334 -3 83.001 -3c104 0 178.167 18.833 222.5 56.5s66.5 100.5 66.5 188.5v13h65v-576h-65c-1.33301 98 -23.166 166.167 -65.499 204.5s-118.166 57.5 -227.499 57.5c-22.667 0 -40.167 -0.166992 -52.5 -0.5
s-23.5 -0.833008 -33.5 -1.5v-489c0 -82 14.167 -132.833 42.5 -152.5s85.166 -29.5 170.499 -29.5h110c131.333 0 232.333 30.5 303 91.5s126 166.167 166 315.5l76 -14l-94 -459h-1235zM687.998 1888l288.999 -298.999h-67l-330 205
c-20.667 13.333 -36.167 26.666 -46.5 39.999s-15.5 27.333 -15.5 42c0 20 6.83301 36.833 20.5 50.5s30.834 20.5 51.501 20.5c14 0 28 -4 42 -12s32.667 -23.667 56 -47z" />
    <glyph glyph-name="Eacute" unicode="&#xc9;" horiz-adv-x="1536" 
d="M88 0l-0.00195312 57h64c84 0 138 10.333 162 31s36 70.667 36 150v970c0 79.333 -12 129.333 -36 150s-78 31 -162 31h-64v57h1204l39 -371h-71c-28.667 114 -71.667 193.333 -129 238s-147 67 -269 67h-141c-69.333 0 -115.333 -10.833 -138 -32.5
s-34 -68.167 -34 -139.5v-409l7 -1c38.667 -2 66.334 -3 83.001 -3c104 0 178.167 18.833 222.5 56.5s66.5 100.5 66.5 188.5v13h65v-576h-65c-1.33301 98 -23.166 166.167 -65.499 204.5s-118.166 57.5 -227.499 57.5c-22.667 0 -40.167 -0.166992 -52.5 -0.5
s-23.5 -0.833008 -33.5 -1.5v-489c0 -82 14.167 -132.833 42.5 -152.5s85.166 -29.5 170.499 -29.5h110c131.333 0 232.333 30.5 303 91.5s126 166.167 166 315.5l76 -14l-94 -459h-1235zM1022 1794l-330.001 -205.001h-67l289 299c23.333 23.333 42 39 56 47s28 12 42 12
c20.667 0 37.834 -6.83301 51.501 -20.5s20.5 -30.5 20.5 -50.5c0 -14.667 -5.16699 -28.667 -15.5 -42s-25.833 -26.666 -46.5 -39.999z" />
    <glyph glyph-name="Ecircumflex" unicode="&#xca;" horiz-adv-x="1536" 
d="M88 0l-0.00195312 57h64c84 0 138 10.333 162 31s36 70.667 36 150v970c0 79.333 -12 129.333 -36 150s-78 31 -162 31h-64v57h1204l39 -371h-71c-28.667 114 -71.667 193.333 -129 238s-147 67 -269 67h-141c-69.333 0 -115.333 -10.833 -138 -32.5
s-34 -68.167 -34 -139.5v-409l7 -1c38.667 -2 66.334 -3 83.001 -3c104 0 178.167 18.833 222.5 56.5s66.5 100.5 66.5 188.5v13h65v-576h-65c-1.33301 98 -23.166 166.167 -65.499 204.5s-118.166 57.5 -227.499 57.5c-22.667 0 -40.167 -0.166992 -52.5 -0.5
s-23.5 -0.833008 -33.5 -1.5v-489c0 -82 14.167 -132.833 42.5 -152.5s85.166 -29.5 170.499 -29.5h110c131.333 0 232.333 30.5 303 91.5s126 166.167 166 315.5l76 -14l-94 -459h-1235zM741.998 1937h118l232 -348h-58l-233 211l-233 -211h-58z" />
    <glyph glyph-name="Edieresis" unicode="&#xcb;" horiz-adv-x="1536" 
d="M88 0l-0.00195312 57h64c84 0 138 10.333 162 31s36 70.667 36 150v970c0 79.333 -12 129.333 -36 150s-78 31 -162 31h-64v57h1204l39 -371h-71c-28.667 114 -71.667 193.333 -129 238s-147 67 -269 67h-141c-69.333 0 -115.333 -10.833 -138 -32.5
s-34 -68.167 -34 -139.5v-409l7 -1c38.667 -2 66.334 -3 83.001 -3c104 0 178.167 18.833 222.5 56.5s66.5 100.5 66.5 188.5v13h65v-576h-65c-1.33301 98 -23.166 166.167 -65.499 204.5s-118.166 57.5 -227.499 57.5c-22.667 0 -40.167 -0.166992 -52.5 -0.5
s-23.5 -0.833008 -33.5 -1.5v-489c0 -82 14.167 -132.833 42.5 -152.5s85.166 -29.5 170.499 -29.5h110c131.333 0 232.333 30.5 303 91.5s126 166.167 166 315.5l76 -14l-94 -459h-1235zM976.998 1843c26.667 0 49.667 -9.83301 69 -29.5s29 -42.834 29 -69.501
c0 -28.667 -9.16699 -52.5 -27.5 -71.5s-41.833 -28.5 -70.5 -28.5s-52.5 9.5 -71.5 28.5s-28.5 42.833 -28.5 71.5c0 26.667 10 49.834 30 69.501s43.333 29.5 70 29.5zM624.998 1843c26.667 0 50 -9.83301 70 -29.5s30 -42.834 30 -69.501
c0 -28.667 -9.5 -52.5 -28.5 -71.5s-42.833 -28.5 -71.5 -28.5s-52.167 9.5 -70.5 28.5s-27.5 42.833 -27.5 71.5c0 26.667 9.66699 49.834 29 69.501s42.333 29.5 69 29.5z" />
    <glyph glyph-name="Igrave" unicode="&#xcc;" horiz-adv-x="901" 
d="M549 238c0 -79.333 12 -129.333 36 -150s78.333 -31 163 -31h63v-57h-721v57h64c83.333 0 136.833 10.167 160.5 30.5s35.5 70.5 35.5 150.5v970c0 80 -11.833 130.167 -35.5 150.5s-77.167 30.5 -160.5 30.5h-64v57h721v-57h-63c-84.667 0 -139 -10.333 -163 -31
s-36 -70.667 -36 -150v-970zM338 1888l288.999 -298.999h-67l-330 205c-20.667 13.333 -36.167 26.666 -46.5 39.999s-15.5 27.333 -15.5 42c0 20 6.83301 36.833 20.5 50.5s30.834 20.5 51.501 20.5c14 0 28 -4 42 -12s32.667 -23.667 56 -47z" />
    <glyph glyph-name="Iacute" unicode="&#xcd;" horiz-adv-x="901" 
d="M549 238c0 -79.333 12 -129.333 36 -150s78.333 -31 163 -31h63v-57h-721v57h64c83.333 0 136.833 10.167 160.5 30.5s35.5 70.5 35.5 150.5v970c0 80 -11.833 130.167 -35.5 150.5s-77.167 30.5 -160.5 30.5h-64v57h721v-57h-63c-84.667 0 -139 -10.333 -163 -31
s-36 -70.667 -36 -150v-970zM672 1794l-330.001 -205.001h-67l289 299c23.333 23.333 42 39 56 47s28 12 42 12c20.667 0 37.834 -6.83301 51.501 -20.5s20.5 -30.5 20.5 -50.5c0 -14.667 -5.16699 -28.667 -15.5 -42s-25.833 -26.666 -46.5 -39.999z" />
    <glyph glyph-name="Icircumflex" unicode="&#xce;" horiz-adv-x="901" 
d="M549 238c0 -79.333 12 -129.333 36 -150s78.333 -31 163 -31h63v-57h-721v57h64c83.333 0 136.833 10.167 160.5 30.5s35.5 70.5 35.5 150.5v970c0 80 -11.833 130.167 -35.5 150.5s-77.167 30.5 -160.5 30.5h-64v57h721v-57h-63c-84.667 0 -139 -10.333 -163 -31
s-36 -70.667 -36 -150v-970zM392 1937h118l232 -348h-58l-233 211l-233 -211h-58z" />
    <glyph glyph-name="Idieresis" unicode="&#xcf;" horiz-adv-x="901" 
d="M549 238c0 -79.333 12 -129.333 36 -150s78.333 -31 163 -31h63v-57h-721v57h64c83.333 0 136.833 10.167 160.5 30.5s35.5 70.5 35.5 150.5v970c0 80 -11.833 130.167 -35.5 150.5s-77.167 30.5 -160.5 30.5h-64v57h721v-57h-63c-84.667 0 -139 -10.333 -163 -31
s-36 -70.667 -36 -150v-970zM627 1843c26.667 0 49.667 -9.83301 69 -29.5s29 -42.834 29 -69.501c0 -28.667 -9.16699 -52.5 -27.5 -71.5s-41.833 -28.5 -70.5 -28.5s-52.5 9.5 -71.5 28.5s-28.5 42.833 -28.5 71.5c0 26.667 10 49.834 30 69.501s43.333 29.5 70 29.5z
M275 1843c26.667 0 50 -9.83301 70 -29.5s30 -42.834 30 -69.501c0 -28.667 -9.5 -52.5 -28.5 -71.5s-42.833 -28.5 -71.5 -28.5s-52.167 9.5 -70.5 28.5s-27.5 42.833 -27.5 71.5c0 26.667 9.66699 49.834 29 69.501s42.333 29.5 69 29.5z" />
    <glyph glyph-name="Eth" unicode="&#xd0;" horiz-adv-x="1749" 
d="M596 270c0 -92.667 13.498 -150.665 40.498 -173.998s92.833 -35 197.5 -35c217.333 0 371 51.667 461 155s135 279.666 135 528.999c0 227.333 -48.167 391.5 -144.5 492.5s-253.166 151.5 -470.499 151.5c-95.333 0 -155.666 -11.333 -180.999 -34
s-38 -80.334 -38 -173.001v-398h416v-65h-416v-449zM134.998 0.00195312l0.000976562 61h64c86 0 140.5 10 163.5 30s34.5 69 34.5 147v481h-262v65h262v424c0 79.333 -12 129.333 -36 150s-78 31 -162 31h-64v57h690c116 0 212.833 -8.5 290.5 -25.5
s146.834 -44.167 207.501 -81.5c105.333 -64 185.666 -147.667 240.999 -251s83 -221 83 -353c0 -142 -31.333 -269 -94 -381s-152.334 -201.333 -269.001 -268c-50.667 -28.667 -116 -50.167 -196 -64.5s-176.333 -21.5 -289 -21.5h-664z" />
    <glyph glyph-name="Ntilde" unicode="&#xd1;" horiz-adv-x="1706" 
d="M68 0v57h59c80 0 135.5 22 166.5 66s46.5 126.667 46.5 248v780c0 79.333 -15.667 138.833 -47 178.5s-78.333 59.5 -141 59.5h-84v57h415l840 -1186v834c0 104 -17 179.167 -51 225.5s-88.667 69.5 -164 69.5h-59v57h600v-57h-66c-72 0 -123.167 -19.5 -153.5 -58.5
s-45.5 -105.833 -45.5 -200.5v-1163h-73l-910 1270v-866c0 -118.667 15 -200.667 45 -246s82 -68 156 -68h70v-57h-604zM1087 1886h54c-13.333 -69.333 -36.166 -120.833 -68.499 -154.5s-74.5 -50.5 -126.5 -50.5c-10 0 -21 0.833008 -33 2.5s-25.333 4.16699 -40 7.5
l-109 29c-8.66699 2 -17.834 3.5 -27.501 4.5s-19.5 1.5 -29.5 1.5c-22 0 -39.833 -7 -53.5 -21s-25.5 -37 -35.5 -69h-51c12.667 70.667 35.334 123.5 68.001 158.5s75.667 52.5 129 52.5c12.667 0 24 -0.666992 34 -2s19.667 -3.33301 29 -6l111 -29
c12 -3.33301 22.667 -5.83301 32 -7.5s17 -2.5 23 -2.5c24.667 0 44.167 6.5 58.5 19.5s26.166 35.167 35.499 66.5z" />
    <glyph glyph-name="Ograve" unicode="&#xd2;" horiz-adv-x="1583" 
d="M791 29c149.333 0 264 59.6689 344 179.002s120 291 120 515c0 223.333 -40.167 395.166 -120.5 515.499s-194.833 180.5 -343.5 180.5c-149.333 0 -263.833 -59.833 -343.5 -179.5s-119.5 -291.834 -119.5 -516.501s39.833 -396.5 119.5 -515.5
s194.167 -178.5 343.5 -178.5zM109 729.002c0 131.333 23.833 249.168 71.5 353.501s117.834 192.833 210.501 265.5c55.333 42.667 117.166 75.167 185.499 97.5s139.833 33.5 214.5 33.5c75.333 0 147.666 -11.333 216.999 -34s130.666 -55 183.999 -97
c93.333 -73.333 163.833 -162.5 211.5 -267.5s71.5 -224.167 71.5 -357.5c0 -134 -23.833 -253.333 -71.5 -358s-118.167 -193.667 -211.5 -267c-53.333 -42 -114.666 -74.333 -183.999 -97s-141.666 -34 -216.999 -34c-200.667 0 -364.5 70.667 -491.5 212
s-190.5 324.666 -190.5 549.999zM680 1888l288.999 -298.999h-67l-330 205c-20.667 13.333 -36.167 26.666 -46.5 39.999s-15.5 27.333 -15.5 42c0 20 6.83301 36.833 20.5 50.5s30.834 20.5 51.501 20.5c14 0 28 -4 42 -12s32.667 -23.667 56 -47z" />
    <glyph glyph-name="Oacute" unicode="&#xd3;" horiz-adv-x="1583" 
d="M791 29c149.333 0 264 59.6689 344 179.002s120 291 120 515c0 223.333 -40.167 395.166 -120.5 515.499s-194.833 180.5 -343.5 180.5c-149.333 0 -263.833 -59.833 -343.5 -179.5s-119.5 -291.834 -119.5 -516.501s39.833 -396.5 119.5 -515.5
s194.167 -178.5 343.5 -178.5zM109 729.002c0 131.333 23.833 249.168 71.5 353.501s117.834 192.833 210.501 265.5c55.333 42.667 117.166 75.167 185.499 97.5s139.833 33.5 214.5 33.5c75.333 0 147.666 -11.333 216.999 -34s130.666 -55 183.999 -97
c93.333 -73.333 163.833 -162.5 211.5 -267.5s71.5 -224.167 71.5 -357.5c0 -134 -23.833 -253.333 -71.5 -358s-118.167 -193.667 -211.5 -267c-53.333 -42 -114.666 -74.333 -183.999 -97s-141.666 -34 -216.999 -34c-200.667 0 -364.5 70.667 -491.5 212
s-190.5 324.666 -190.5 549.999zM1014 1794l-330.001 -205.001h-67l289 299c23.333 23.333 42 39 56 47s28 12 42 12c20.667 0 37.834 -6.83301 51.501 -20.5s20.5 -30.5 20.5 -50.5c0 -14.667 -5.16699 -28.667 -15.5 -42s-25.833 -26.666 -46.5 -39.999z" />
    <glyph glyph-name="Ocircumflex" unicode="&#xd4;" horiz-adv-x="1583" 
d="M791 29c149.333 0 264 59.6689 344 179.002s120 291 120 515c0 223.333 -40.167 395.166 -120.5 515.499s-194.833 180.5 -343.5 180.5c-149.333 0 -263.833 -59.833 -343.5 -179.5s-119.5 -291.834 -119.5 -516.501s39.833 -396.5 119.5 -515.5
s194.167 -178.5 343.5 -178.5zM109 729.002c0 131.333 23.833 249.168 71.5 353.501s117.834 192.833 210.501 265.5c55.333 42.667 117.166 75.167 185.499 97.5s139.833 33.5 214.5 33.5c75.333 0 147.666 -11.333 216.999 -34s130.666 -55 183.999 -97
c93.333 -73.333 163.833 -162.5 211.5 -267.5s71.5 -224.167 71.5 -357.5c0 -134 -23.833 -253.333 -71.5 -358s-118.167 -193.667 -211.5 -267c-53.333 -42 -114.666 -74.333 -183.999 -97s-141.666 -34 -216.999 -34c-200.667 0 -364.5 70.667 -491.5 212
s-190.5 324.666 -190.5 549.999zM734 1937h118l232 -348h-58l-233 211l-233 -211h-58z" />
    <glyph glyph-name="Otilde" unicode="&#xd5;" horiz-adv-x="1583" 
d="M791 29c149.333 0 264 59.6689 344 179.002s120 291 120 515c0 223.333 -40.167 395.166 -120.5 515.499s-194.833 180.5 -343.5 180.5c-149.333 0 -263.833 -59.833 -343.5 -179.5s-119.5 -291.834 -119.5 -516.501s39.833 -396.5 119.5 -515.5
s194.167 -178.5 343.5 -178.5zM109 729.002c0 131.333 23.833 249.168 71.5 353.501s117.834 192.833 210.501 265.5c55.333 42.667 117.166 75.167 185.499 97.5s139.833 33.5 214.5 33.5c75.333 0 147.666 -11.333 216.999 -34s130.666 -55 183.999 -97
c93.333 -73.333 163.833 -162.5 211.5 -267.5s71.5 -224.167 71.5 -357.5c0 -134 -23.833 -253.333 -71.5 -358s-118.167 -193.667 -211.5 -267c-53.333 -42 -114.666 -74.333 -183.999 -97s-141.666 -34 -216.999 -34c-200.667 0 -364.5 70.667 -491.5 212
s-190.5 324.666 -190.5 549.999zM1026 1886h54c-13.333 -69.333 -36.166 -120.833 -68.499 -154.5s-74.5 -50.5 -126.5 -50.5c-10 0 -21 0.833008 -33 2.5s-25.333 4.16699 -40 7.5l-109 29c-8.66699 2 -17.834 3.5 -27.501 4.5s-19.5 1.5 -29.5 1.5
c-22 0 -39.833 -7 -53.5 -21s-25.5 -37 -35.5 -69h-51c12.667 70.667 35.334 123.5 68.001 158.5s75.667 52.5 129 52.5c12.667 0 24 -0.666992 34 -2s19.667 -3.33301 29 -6l111 -29c12 -3.33301 22.667 -5.83301 32 -7.5s17 -2.5 23 -2.5c24.667 0 44.167 6.5 58.5 19.5
s26.166 35.167 35.499 66.5z" />
    <glyph glyph-name="Odieresis" unicode="&#xd6;" horiz-adv-x="1583" 
d="M791 29c149.333 0 264 59.6689 344 179.002s120 291 120 515c0 223.333 -40.167 395.166 -120.5 515.499s-194.833 180.5 -343.5 180.5c-149.333 0 -263.833 -59.833 -343.5 -179.5s-119.5 -291.834 -119.5 -516.501s39.833 -396.5 119.5 -515.5
s194.167 -178.5 343.5 -178.5zM109 729.002c0 131.333 23.833 249.168 71.5 353.501s117.834 192.833 210.501 265.5c55.333 42.667 117.166 75.167 185.499 97.5s139.833 33.5 214.5 33.5c75.333 0 147.666 -11.333 216.999 -34s130.666 -55 183.999 -97
c93.333 -73.333 163.833 -162.5 211.5 -267.5s71.5 -224.167 71.5 -357.5c0 -134 -23.833 -253.333 -71.5 -358s-118.167 -193.667 -211.5 -267c-53.333 -42 -114.666 -74.333 -183.999 -97s-141.666 -34 -216.999 -34c-200.667 0 -364.5 70.667 -491.5 212
s-190.5 324.666 -190.5 549.999zM969 1843c26.667 0 49.667 -9.83301 69 -29.5s29 -42.834 29 -69.501c0 -28.667 -9.16699 -52.5 -27.5 -71.5s-41.833 -28.5 -70.5 -28.5s-52.5 9.5 -71.5 28.5s-28.5 42.833 -28.5 71.5c0 26.667 10 49.834 30 69.501s43.333 29.5 70 29.5z
M617 1843c26.667 0 50 -9.83301 70 -29.5s30 -42.834 30 -69.501c0 -28.667 -9.5 -52.5 -28.5 -71.5s-42.833 -28.5 -71.5 -28.5s-52.167 9.5 -70.5 28.5s-27.5 42.833 -27.5 71.5c0 26.667 9.66699 49.834 29 69.501s42.333 29.5 69 29.5z" />
    <glyph glyph-name="multiply" unicode="&#xd7;" horiz-adv-x="1706" 
d="M381 1169l477 -477l475 477l82 -82l-475 -477l475 -475l-82 -82l-475 475l-477 -475l-80 82l475 475l-475 477z" />
    <glyph glyph-name="Oslash" unicode="&#xd8;" horiz-adv-x="1583" 
d="M455 197c43.333 -56 93.166 -98 149.499 -126s118.5 -42 186.5 -42c149.333 0 264 59.667 344 179s120 291 120 515c0 92.667 -6.66699 176.167 -20 250.5s-33.666 141.833 -60.999 202.5zM406 279l721.998 976.001c-47.333 54.667 -99.166 95.667 -155.499 123
s-116.833 41 -181.5 41c-149.333 0 -263.833 -59.833 -343.5 -179.5s-119.5 -291.834 -119.5 -516.501c0 -93.333 6.33301 -176.333 19 -249s32.334 -137.667 59.001 -195zM124.998 -108.999l193.997 268.998c-69.333 70.667 -121.666 153.334 -156.999 248.001
s-53 199.667 -53 315c0 134 23.5 253.333 70.5 358s117.5 193.667 211.5 267c54 42 115.333 74.333 184 97s140.667 34 216 34s147 -11.167 215 -33.5s130.667 -55.5 188 -99.5l152 208h106l-190 -264c72 -76 125.5 -160.667 160.5 -254s52.5 -197.666 52.5 -312.999
c0 -134 -23.833 -253.333 -71.5 -358s-118.167 -193.667 -211.5 -267c-53.333 -42 -114.666 -74.333 -183.999 -97s-141.666 -34 -216.999 -34c-76.667 0 -148.667 11.5 -216 34.5s-130 57.167 -188 102.5l-156 -213h-106z" />
    <glyph glyph-name="Ugrave" unicode="&#xd9;" horiz-adv-x="1612" 
d="M317 539l-0.000976562 669.001c0 78.667 -12.167 128.5 -36.5 149.5s-78.166 31.5 -161.499 31.5h-64v57h705v-57h-47c-84 0 -137.833 -10.167 -161.5 -30.5s-35.5 -70.5 -35.5 -150.5v-721c0 -158.667 27.667 -272 83 -340s146.333 -102 273 -102
c83.333 0 156 18.333 218 55s107 88 135 154c16 38 27.5 81.5 34.5 130.5s10.5 125.5 10.5 229.5v463c0 129.333 -16.833 212.666 -50.5 249.999s-99.5 58 -197.5 62v57h551v-57c-92.667 -3.33301 -156.167 -26 -190.5 -68s-51.5 -122.667 -51.5 -242v-477
c0 -224.667 -41 -386.667 -123 -486s-215 -149 -399 -149c-164 0 -287 47.667 -369 143s-123 238.333 -123 429zM726.999 1888l288.999 -298.999h-67l-330 205c-20.667 13.333 -36.167 26.666 -46.5 39.999s-15.5 27.333 -15.5 42c0 20 6.83301 36.833 20.5 50.5
s30.834 20.5 51.501 20.5c14 0 28 -4 42 -12s32.667 -23.667 56 -47z" />
    <glyph glyph-name="Uacute" unicode="&#xda;" horiz-adv-x="1612" 
d="M317 539l-0.000976562 669.001c0 78.667 -12.167 128.5 -36.5 149.5s-78.166 31.5 -161.499 31.5h-64v57h705v-57h-47c-84 0 -137.833 -10.167 -161.5 -30.5s-35.5 -70.5 -35.5 -150.5v-721c0 -158.667 27.667 -272 83 -340s146.333 -102 273 -102
c83.333 0 156 18.333 218 55s107 88 135 154c16 38 27.5 81.5 34.5 130.5s10.5 125.5 10.5 229.5v463c0 129.333 -16.833 212.666 -50.5 249.999s-99.5 58 -197.5 62v57h551v-57c-92.667 -3.33301 -156.167 -26 -190.5 -68s-51.5 -122.667 -51.5 -242v-477
c0 -224.667 -41 -386.667 -123 -486s-215 -149 -399 -149c-164 0 -287 47.667 -369 143s-123 238.333 -123 429zM1061 1794l-330.001 -205.001h-67l289 299c23.333 23.333 42 39 56 47s28 12 42 12c20.667 0 37.834 -6.83301 51.501 -20.5s20.5 -30.5 20.5 -50.5
c0 -14.667 -5.16699 -28.667 -15.5 -42s-25.833 -26.666 -46.5 -39.999z" />
    <glyph glyph-name="Ucircumflex" unicode="&#xdb;" horiz-adv-x="1612" 
d="M317 539l-0.000976562 669.001c0 78.667 -12.167 128.5 -36.5 149.5s-78.166 31.5 -161.499 31.5h-64v57h705v-57h-47c-84 0 -137.833 -10.167 -161.5 -30.5s-35.5 -70.5 -35.5 -150.5v-721c0 -158.667 27.667 -272 83 -340s146.333 -102 273 -102
c83.333 0 156 18.333 218 55s107 88 135 154c16 38 27.5 81.5 34.5 130.5s10.5 125.5 10.5 229.5v463c0 129.333 -16.833 212.666 -50.5 249.999s-99.5 58 -197.5 62v57h551v-57c-92.667 -3.33301 -156.167 -26 -190.5 -68s-51.5 -122.667 -51.5 -242v-477
c0 -224.667 -41 -386.667 -123 -486s-215 -149 -399 -149c-164 0 -287 47.667 -369 143s-123 238.333 -123 429zM780.999 1937h118l232 -348h-58l-233 211l-233 -211h-58z" />
    <glyph glyph-name="Udieresis" unicode="&#xdc;" horiz-adv-x="1612" 
d="M317 539l-0.000976562 669.001c0 78.667 -12.167 128.5 -36.5 149.5s-78.166 31.5 -161.499 31.5h-64v57h705v-57h-47c-84 0 -137.833 -10.167 -161.5 -30.5s-35.5 -70.5 -35.5 -150.5v-721c0 -158.667 27.667 -272 83 -340s146.333 -102 273 -102
c83.333 0 156 18.333 218 55s107 88 135 154c16 38 27.5 81.5 34.5 130.5s10.5 125.5 10.5 229.5v463c0 129.333 -16.833 212.666 -50.5 249.999s-99.5 58 -197.5 62v57h551v-57c-92.667 -3.33301 -156.167 -26 -190.5 -68s-51.5 -122.667 -51.5 -242v-477
c0 -224.667 -41 -386.667 -123 -486s-215 -149 -399 -149c-164 0 -287 47.667 -369 143s-123 238.333 -123 429zM1016 1843c26.667 0 49.667 -9.83301 69 -29.5s29 -42.834 29 -69.501c0 -28.667 -9.16699 -52.5 -27.5 -71.5s-41.833 -28.5 -70.5 -28.5
s-52.5 9.5 -71.5 28.5s-28.5 42.833 -28.5 71.5c0 26.667 10 49.834 30 69.501s43.333 29.5 70 29.5zM663.999 1843c26.667 0 50 -9.83301 70 -29.5s30 -42.834 30 -69.501c0 -28.667 -9.5 -52.5 -28.5 -71.5s-42.833 -28.5 -71.5 -28.5s-52.167 9.5 -70.5 28.5
s-27.5 42.833 -27.5 71.5c0 26.667 9.66699 49.834 29 69.501s42.333 29.5 69 29.5z" />
    <glyph glyph-name="Yacute" unicode="&#xdd;" horiz-adv-x="1356" 
d="M801 238c0 -80 11.832 -130.169 35.499 -150.502s77.167 -30.5 160.5 -30.5h64v-57h-721v57h63c84.667 0 139 10.333 163 31s36 70.667 36 150v260l-346 696c-40 80.667 -76 132.667 -108 156s-75.333 36.333 -130 39v57h588v-57c-62 -1.33301 -105.5 -9 -130.5 -23
s-37.5 -37.333 -37.5 -70c0 -13.333 2 -27.666 6 -42.999s9.66699 -31 17 -47l313 -657l299 575c18.667 34.667 32.167 64.834 40.5 90.501s12.5 48.167 12.5 67.5c0 36.667 -14.333 63.667 -43 81s-73.667 26 -135 26h-10v57h453v-57
c-41.333 -1.33301 -77.166 -15.333 -107.499 -42s-67.833 -81.667 -112.5 -165l-370 -707v-237zM898.999 1794l-330.001 -205.001h-67l289 299c23.333 23.333 42 39 56 47s28 12 42 12c20.667 0 37.834 -6.83301 51.501 -20.5s20.5 -30.5 20.5 -50.5
c0 -14.667 -5.16699 -28.667 -15.5 -42s-25.833 -26.666 -46.5 -39.999z" />
    <glyph glyph-name="Thorn" unicode="&#xde;" horiz-adv-x="1389" 
d="M549 451l126.998 -0.00195312c142.667 0 247.334 26.833 314.001 80.5s100 137.834 100 252.501c0 116.667 -30.333 201.834 -91 255.501s-156.667 80.5 -288 80.5c-69.333 0 -113.666 -9.16699 -132.999 -27.5s-29 -60.833 -29 -127.5v-514zM785.998 1446
l0.000976562 -57.001h-41c-82.667 0 -136.334 -10.333 -161.001 -31s-37 -61.667 -37 -123c0 -13.333 0.166992 -23.666 0.5 -30.999s0.833008 -14 1.5 -20h162c193.333 0 338.5 -33.667 435.5 -101s145.5 -168.333 145.5 -303c0 -120 -46.5 -214.5 -139.5 -283.5
s-221.833 -103.5 -386.5 -103.5h-217v-155c0 -80 11.833 -130.167 35.5 -150.5s77.167 -30.5 160.5 -30.5h74v-57h-731v57h64c84 0 138 10.333 162 31s36 70.667 36 150v970c0 79.333 -12 129.333 -36 150s-78 31 -162 31h-64v57h698z" />
    <glyph glyph-name="germandbls" unicode="&#xdf;" horiz-adv-x="1143" 
d="M43 0v56.999h53c48.667 0 82 11.167 100 33.5s27 71.5 27 147.5v792c0 160 30.5 277.167 91.5 351.5s156.833 111.5 287.5 111.5c102.667 0 186.334 -32.167 251.001 -96.5s97 -146.833 97 -247.5c0 -77.333 -20.833 -142.833 -62.5 -196.5s-100.5 -90.5 -176.5 -110.5
c109.333 -30 193 -82.833 251 -158.5s87 -170.5 87 -284.5c0 -127.333 -33.667 -229.5 -101 -306.5s-156 -115.5 -266 -115.5c-54 0 -97.833 10.667 -131.5 32s-50.5 48.333 -50.5 81c0 22.667 7.5 41.334 22.5 56.001s34.167 22 57.5 22
c21.333 0 40.166 -4.66699 56.499 -14s32.833 -25 49.5 -47l13 -19c21.333 -31.333 43 -47 65 -47c37.333 0 64 23.5 80 70.5s24 127.833 24 242.5c0 175.333 -22.833 295 -68.5 359s-127.167 96 -244.5 96h-18v57c4 0 10 -0.333008 18 -1s14 -1 18 -1
c76 0 131.667 23 167 69s53 118.667 53 218c0 102.667 -17 177.5 -51 224.5s-87.333 70.5 -160 70.5c-70.667 0 -121.5 -28.167 -152.5 -84.5s-46.5 -150.5 -46.5 -282.5v-1079h-340z" />
    <glyph glyph-name="agrave" unicode="&#xe0;" horiz-adv-x="995" 
d="M637 178v336c-126 -21.333 -221.667 -56.5 -287 -105.5s-98 -110.167 -98 -183.5c0 -52 12.667 -92.667 38 -122s60.333 -44 105 -44c36 0 74.333 10 115 30s83 49.667 127 89zM639 115c-59.333 -44 -115.335 -76.499 -168.002 -97.499s-103.334 -31.5 -152.001 -31.5
c-71.333 0 -129.666 21.667 -174.999 65s-68 98.666 -68 165.999c0 85.333 42.5 154.333 127.5 207s229.5 98.334 433.5 137.001v125c0 75.333 -13.5 128.333 -40.5 159s-72.167 46 -135.5 46c-43.333 0 -73.666 -4.83301 -90.999 -14.5s-29.333 -30.167 -36 -61.5
c-2.66699 -12 -6 -29.333 -10 -52c-15.333 -85.333 -48.333 -128 -99 -128c-25.333 0 -46.333 9.5 -63 28.5s-25 42.833 -25 71.5c0 59.333 30.833 108.333 92.5 147s140.834 58 237.501 58c74 0 135.5 -9.16699 184.5 -27.5s87.167 -46.166 114.5 -83.499
c12 -16 20.5 -37.667 25.5 -65s7.5 -79.333 7.5 -156v-413c0 -44.667 3.16699 -73.667 9.5 -87s18.166 -20 35.499 -20c18 0 35.333 10.833 52 32.5s32.667 54.5 48 98.5l47 -14c-17.333 -68.667 -45.666 -122.334 -84.999 -161.001s-84 -58 -134 -58
c-35.333 0 -64 10.667 -86 32s-37.667 53.666 -47 96.999zM384.998 1358l288.999 -298.999h-67l-330 205c-20.667 13.333 -36.167 26.666 -46.5 39.999s-15.5 27.333 -15.5 42c0 20 6.83301 36.833 20.5 50.5s30.834 20.5 51.501 20.5c14 0 28 -4 42 -12
s32.667 -23.667 56 -47z" />
    <glyph glyph-name="aacute" unicode="&#xe1;" horiz-adv-x="995" 
d="M637 178v336c-126 -21.333 -221.667 -56.5 -287 -105.5s-98 -110.167 -98 -183.5c0 -52 12.667 -92.667 38 -122s60.333 -44 105 -44c36 0 74.333 10 115 30s83 49.667 127 89zM639 115c-59.333 -44 -115.335 -76.499 -168.002 -97.499s-103.334 -31.5 -152.001 -31.5
c-71.333 0 -129.666 21.667 -174.999 65s-68 98.666 -68 165.999c0 85.333 42.5 154.333 127.5 207s229.5 98.334 433.5 137.001v125c0 75.333 -13.5 128.333 -40.5 159s-72.167 46 -135.5 46c-43.333 0 -73.666 -4.83301 -90.999 -14.5s-29.333 -30.167 -36 -61.5
c-2.66699 -12 -6 -29.333 -10 -52c-15.333 -85.333 -48.333 -128 -99 -128c-25.333 0 -46.333 9.5 -63 28.5s-25 42.833 -25 71.5c0 59.333 30.833 108.333 92.5 147s140.834 58 237.501 58c74 0 135.5 -9.16699 184.5 -27.5s87.167 -46.166 114.5 -83.499
c12 -16 20.5 -37.667 25.5 -65s7.5 -79.333 7.5 -156v-413c0 -44.667 3.16699 -73.667 9.5 -87s18.166 -20 35.499 -20c18 0 35.333 10.833 52 32.5s32.667 54.5 48 98.5l47 -14c-17.333 -68.667 -45.666 -122.334 -84.999 -161.001s-84 -58 -134 -58
c-35.333 0 -64 10.667 -86 32s-37.667 53.666 -47 96.999zM718.998 1264l-330.001 -205.001h-67l289 299c23.333 23.333 42 39 56 47s28 12 42 12c20.667 0 37.834 -6.83301 51.501 -20.5s20.5 -30.5 20.5 -50.5c0 -14.667 -5.16699 -28.667 -15.5 -42
s-25.833 -26.666 -46.5 -39.999z" />
    <glyph glyph-name="acircumflex" unicode="&#xe2;" horiz-adv-x="995" 
d="M637 178v336c-126 -21.333 -221.667 -56.5 -287 -105.5s-98 -110.167 -98 -183.5c0 -52 12.667 -92.667 38 -122s60.333 -44 105 -44c36 0 74.333 10 115 30s83 49.667 127 89zM639 115c-59.333 -44 -115.335 -76.499 -168.002 -97.499s-103.334 -31.5 -152.001 -31.5
c-71.333 0 -129.666 21.667 -174.999 65s-68 98.666 -68 165.999c0 85.333 42.5 154.333 127.5 207s229.5 98.334 433.5 137.001v125c0 75.333 -13.5 128.333 -40.5 159s-72.167 46 -135.5 46c-43.333 0 -73.666 -4.83301 -90.999 -14.5s-29.333 -30.167 -36 -61.5
c-2.66699 -12 -6 -29.333 -10 -52c-15.333 -85.333 -48.333 -128 -99 -128c-25.333 0 -46.333 9.5 -63 28.5s-25 42.833 -25 71.5c0 59.333 30.833 108.333 92.5 147s140.834 58 237.501 58c74 0 135.5 -9.16699 184.5 -27.5s87.167 -46.166 114.5 -83.499
c12 -16 20.5 -37.667 25.5 -65s7.5 -79.333 7.5 -156v-413c0 -44.667 3.16699 -73.667 9.5 -87s18.166 -20 35.499 -20c18 0 35.333 10.833 52 32.5s32.667 54.5 48 98.5l47 -14c-17.333 -68.667 -45.666 -122.334 -84.999 -161.001s-84 -58 -134 -58
c-35.333 0 -64 10.667 -86 32s-37.667 53.666 -47 96.999zM438.998 1407h118l232 -348h-58l-233 211l-233 -211h-58z" />
    <glyph glyph-name="atilde" unicode="&#xe3;" horiz-adv-x="995" 
d="M637 178v336c-126 -21.333 -221.667 -56.5 -287 -105.5s-98 -110.167 -98 -183.5c0 -52 12.667 -92.667 38 -122s60.333 -44 105 -44c36 0 74.333 10 115 30s83 49.667 127 89zM639 115c-59.333 -44 -115.335 -76.499 -168.002 -97.499s-103.334 -31.5 -152.001 -31.5
c-71.333 0 -129.666 21.667 -174.999 65s-68 98.666 -68 165.999c0 85.333 42.5 154.333 127.5 207s229.5 98.334 433.5 137.001v125c0 75.333 -13.5 128.333 -40.5 159s-72.167 46 -135.5 46c-43.333 0 -73.666 -4.83301 -90.999 -14.5s-29.333 -30.167 -36 -61.5
c-2.66699 -12 -6 -29.333 -10 -52c-15.333 -85.333 -48.333 -128 -99 -128c-25.333 0 -46.333 9.5 -63 28.5s-25 42.833 -25 71.5c0 59.333 30.833 108.333 92.5 147s140.834 58 237.501 58c74 0 135.5 -9.16699 184.5 -27.5s87.167 -46.166 114.5 -83.499
c12 -16 20.5 -37.667 25.5 -65s7.5 -79.333 7.5 -156v-413c0 -44.667 3.16699 -73.667 9.5 -87s18.166 -20 35.499 -20c18 0 35.333 10.833 52 32.5s32.667 54.5 48 98.5l47 -14c-17.333 -68.667 -45.666 -122.334 -84.999 -161.001s-84 -58 -134 -58
c-35.333 0 -64 10.667 -86 32s-37.667 53.666 -47 96.999zM730.998 1356h54c-13.333 -69.333 -36.166 -120.833 -68.499 -154.5s-74.5 -50.5 -126.5 -50.5c-10 0 -21 0.833008 -33 2.5s-25.333 4.16699 -40 7.5l-109 29c-8.66699 2 -17.834 3.5 -27.501 4.5
s-19.5 1.5 -29.5 1.5c-22 0 -39.833 -7 -53.5 -21s-25.5 -37 -35.5 -69h-51c12.667 70.667 35.334 123.5 68.001 158.5s75.667 52.5 129 52.5c12.667 0 24 -0.666992 34 -2s19.667 -3.33301 29 -6l111 -29c12 -3.33301 22.667 -5.83301 32 -7.5s17 -2.5 23 -2.5
c24.667 0 44.167 6.5 58.5 19.5s26.166 35.167 35.499 66.5z" />
    <glyph glyph-name="adieresis" unicode="&#xe4;" horiz-adv-x="995" 
d="M637 178v336c-126 -21.333 -221.667 -56.5 -287 -105.5s-98 -110.167 -98 -183.5c0 -52 12.667 -92.667 38 -122s60.333 -44 105 -44c36 0 74.333 10 115 30s83 49.667 127 89zM639 115c-59.333 -44 -115.335 -76.499 -168.002 -97.499s-103.334 -31.5 -152.001 -31.5
c-71.333 0 -129.666 21.667 -174.999 65s-68 98.666 -68 165.999c0 85.333 42.5 154.333 127.5 207s229.5 98.334 433.5 137.001v125c0 75.333 -13.5 128.333 -40.5 159s-72.167 46 -135.5 46c-43.333 0 -73.666 -4.83301 -90.999 -14.5s-29.333 -30.167 -36 -61.5
c-2.66699 -12 -6 -29.333 -10 -52c-15.333 -85.333 -48.333 -128 -99 -128c-25.333 0 -46.333 9.5 -63 28.5s-25 42.833 -25 71.5c0 59.333 30.833 108.333 92.5 147s140.834 58 237.501 58c74 0 135.5 -9.16699 184.5 -27.5s87.167 -46.166 114.5 -83.499
c12 -16 20.5 -37.667 25.5 -65s7.5 -79.333 7.5 -156v-413c0 -44.667 3.16699 -73.667 9.5 -87s18.166 -20 35.499 -20c18 0 35.333 10.833 52 32.5s32.667 54.5 48 98.5l47 -14c-17.333 -68.667 -45.666 -122.334 -84.999 -161.001s-84 -58 -134 -58
c-35.333 0 -64 10.667 -86 32s-37.667 53.666 -47 96.999zM673.998 1313c26.667 0 49.667 -9.83301 69 -29.5s29 -42.834 29 -69.501c0 -28.667 -9.16699 -52.5 -27.5 -71.5s-41.833 -28.5 -70.5 -28.5s-52.5 9.5 -71.5 28.5s-28.5 42.833 -28.5 71.5
c0 26.667 10 49.834 30 69.501s43.333 29.5 70 29.5zM321.998 1313c26.667 0 50 -9.83301 70 -29.5s30 -42.834 30 -69.501c0 -28.667 -9.5 -52.5 -28.5 -71.5s-42.833 -28.5 -71.5 -28.5s-52.167 9.5 -70.5 28.5s-27.5 42.833 -27.5 71.5
c0 26.667 9.66699 49.834 29 69.501s42.333 29.5 69 29.5z" />
    <glyph glyph-name="aring" unicode="&#xe5;" horiz-adv-x="995" 
d="M477 1397c-41.333 0 -76.5 -14.5 -105.5 -43.5s-43.5 -64.5 -43.5 -106.5c0 -40.667 14.5 -75.334 43.5 -104.001s64.167 -43 105.5 -43c42 0 77.5 14.333 106.5 43s43.5 63.334 43.5 104.001c0 42 -14.5 77.5 -43.5 106.5s-64.5 43.5 -106.5 43.5zM477 1489
c67.333 0 124.167 -23.333 170.5 -70s69.5 -104 69.5 -172c0 -67.333 -23 -124 -69 -170s-103 -69 -171 -69s-125.167 23 -171.5 69s-69.5 102.667 -69.5 170c0 68 23.333 125.333 70 172s103.667 70 171 70zM637.001 178v336c-126 -21.333 -221.667 -56.5 -287 -105.5
s-98 -110.167 -98 -183.5c0 -52 12.667 -92.667 38 -122s60.333 -44 105 -44c36 0 74.333 10 115 30s83 49.667 127 89zM639.001 115c-59.333 -44 -115.335 -76.499 -168.002 -97.499s-103.334 -31.5 -152.001 -31.5c-71.333 0 -129.666 21.667 -174.999 65
s-68 98.666 -68 165.999c0 85.333 42.5 154.333 127.5 207s229.5 98.334 433.5 137.001v125c0 75.333 -13.5 128.333 -40.5 159s-72.167 46 -135.5 46c-43.333 0 -73.666 -4.83301 -90.999 -14.5s-29.333 -30.167 -36 -61.5c-2.66699 -12 -6 -29.333 -10 -52
c-15.333 -85.333 -48.333 -128 -99 -128c-25.333 0 -46.333 9.5 -63 28.5s-25 42.833 -25 71.5c0 59.333 30.833 108.333 92.5 147s140.834 58 237.501 58c74 0 135.5 -9.16699 184.5 -27.5s87.167 -46.166 114.5 -83.499c12 -16 20.5 -37.667 25.5 -65
s7.5 -79.333 7.5 -156v-413c0 -44.667 3.16699 -73.667 9.5 -87s18.166 -20 35.499 -20c18 0 35.333 10.833 52 32.5s32.667 54.5 48 98.5l47 -14c-17.333 -68.667 -45.666 -122.334 -84.999 -161.001s-84 -58 -134 -58c-35.333 0 -64 10.667 -86 32
s-37.667 53.666 -47 96.999z" />
    <glyph glyph-name="ae" unicode="&#xe6;" horiz-adv-x="1450" 
d="M795 602l409 0.000976562c0 5.33301 0.333008 12.166 1 20.499s1 14.5 1 18.5c0 82 -17.333 145.833 -52 191.5s-82.667 68.5 -144 68.5c-66.667 0 -117.667 -24.667 -153 -74s-56 -124.333 -62 -225zM1395 211.001c-42 -77.333 -94.501 -136.332 -157.501 -176.999
s-134.167 -61 -213.5 -61c-71.333 0 -136.166 16.5 -194.499 49.5s-104.833 79.5 -139.5 139.5c-64 -58 -127.333 -101.833 -190 -131.5s-123 -44.5 -181 -44.5c-70.667 0 -128.834 21.667 -174.501 65s-68.5 98.666 -68.5 165.999c0 85.333 42.5 154.333 127.5 207
s229.5 98.334 433.5 137.001v127c0 75.333 -13.5 128.333 -40.5 159s-72.167 46 -135.5 46c-42.667 0 -72.667 -4.83301 -90 -14.5s-29.666 -31.167 -36.999 -64.5l-9 -46c-16.667 -88.667 -50 -133 -100 -133c-25.333 0 -46.333 9.5 -63 28.5s-25 42.833 -25 71.5
c0 59.333 30.833 108.333 92.5 147s140.834 58 237.501 58c68.667 0 125.5 -8.5 170.5 -25.5s83.167 -43.833 114.5 -80.5c42 37.333 85.667 65.666 131 84.999s91.666 29 138.999 29c102 0 186.167 -37.167 252.5 -111.5s100.833 -170.833 103.5 -289.5h-585
c-1.33301 -10 -2 -20.167 -2 -30.5v-45.5c0 -133.333 24 -236 72 -308s116.667 -108 206 -108c54.667 0 106 16 154 48s92.333 79.667 133 143zM636.999 178.002l-0.000976562 336c-126.667 -21.333 -222.5 -56.5 -287.5 -105.5s-97.5 -110.833 -97.5 -185.5
c0 -53.333 12 -93.666 36 -120.999s59.667 -41 107 -41c35.333 0 73.833 10.167 115.5 30.5s83.834 49.166 126.501 86.499z" />
    <glyph glyph-name="ccedilla" unicode="&#xe7;" horiz-adv-x="909" 
d="M889 154c-54 -60 -111.001 -104.833 -171.001 -134.5s-124.667 -44.5 -194 -44.5c-130 0 -237.5 46 -322.5 138s-127.5 208.667 -127.5 350c0 140 43.667 255.833 131 347.5s197.333 137.5 330 137.5c89.333 0 163.833 -15.667 223.5 -47s89.5 -69 89.5 -113
c0 -23.333 -8.16699 -42.666 -24.5 -57.999s-36.833 -23 -61.5 -23c-40 0 -82.667 33 -128 99l-28 40c-11.333 16 -27 28.5 -47 37.5s-41.667 13.5 -65 13.5c-75.333 0 -133.833 -35.333 -175.5 -106s-62.5 -170.334 -62.5 -299.001c0 -138 27.833 -247 83.5 -327
s130.834 -120 225.501 -120c49.333 0 98 12.5 146 37.5s94.333 61.833 139 110.5zM435.999 0l63.999 0.00195312v-112c12 2 22.667 3.33301 32 4l29 2c57.333 0 102 -14.5 134 -43.5s48 -69.167 48 -120.5c0 -54.667 -19.5 -97.667 -58.5 -129s-92.5 -47 -160.5 -47
c-36 0 -76.5 5.66699 -121.5 17s-102.167 30.666 -171.5 57.999l33 78c40.667 -22.667 80.5 -40.334 119.5 -53.001s73.5 -19 103.5 -19c42.667 0 73.834 7.5 93.501 22.5s29.5 38.5 29.5 70.5c0 28 -10 50 -30 66s-48 24 -84 24c-8.66699 0 -18 -0.5 -28 -1.5
s-20.667 -2.5 -32 -4.5v188z" />
    <glyph glyph-name="egrave" unicode="&#xe8;" horiz-adv-x="915" 
d="M260 602l408 0.000976562c0 5.33301 0.333008 12.166 1 20.499s1 14.5 1 18.5c0 82 -17.333 145.833 -52 191.5s-83 68.5 -145 68.5c-65.333 0 -115.333 -24.333 -150 -73s-55.667 -124 -63 -226zM860 211.001c-41.333 -77.333 -93.8359 -136.333 -157.503 -177
s-135.5 -61 -215.5 -61c-119.333 0 -217.666 45.667 -294.999 137s-116 207.666 -116 348.999c0 140.667 39.333 257.334 118 350.001s175.667 139 291 139c102.667 0 187.334 -37.167 254.001 -111.5s101.334 -170.833 104.001 -289.5h-587
c-0.666992 -10 -1.16699 -20.667 -1.5 -32s-0.5 -27.333 -0.5 -48c0 -131.333 24.167 -232.833 72.5 -304.5s116.833 -107.5 205.5 -107.5c54.667 0 106 16 154 48s92.333 79.667 133 143zM359.997 1358l288.999 -298.999h-67l-330 205
c-20.667 13.333 -36.167 26.666 -46.5 39.999s-15.5 27.333 -15.5 42c0 20 6.83301 36.833 20.5 50.5s30.834 20.5 51.501 20.5c14 0 28 -4 42 -12s32.667 -23.667 56 -47z" />
    <glyph glyph-name="eacute" unicode="&#xe9;" horiz-adv-x="915" 
d="M260 602l408 0.000976562c0 5.33301 0.333008 12.166 1 20.499s1 14.5 1 18.5c0 82 -17.333 145.833 -52 191.5s-83 68.5 -145 68.5c-65.333 0 -115.333 -24.333 -150 -73s-55.667 -124 -63 -226zM860 211.001c-41.333 -77.333 -93.8359 -136.333 -157.503 -177
s-135.5 -61 -215.5 -61c-119.333 0 -217.666 45.667 -294.999 137s-116 207.666 -116 348.999c0 140.667 39.333 257.334 118 350.001s175.667 139 291 139c102.667 0 187.334 -37.167 254.001 -111.5s101.334 -170.833 104.001 -289.5h-587
c-0.666992 -10 -1.16699 -20.667 -1.5 -32s-0.5 -27.333 -0.5 -48c0 -131.333 24.167 -232.833 72.5 -304.5s116.833 -107.5 205.5 -107.5c54.667 0 106 16 154 48s92.333 79.667 133 143zM693.997 1264l-330.001 -205.001h-67l289 299c23.333 23.333 42 39 56 47
s28 12 42 12c20.667 0 37.834 -6.83301 51.501 -20.5s20.5 -30.5 20.5 -50.5c0 -14.667 -5.16699 -28.667 -15.5 -42s-25.833 -26.666 -46.5 -39.999z" />
    <glyph glyph-name="ecircumflex" unicode="&#xea;" horiz-adv-x="915" 
d="M260 602l408 0.000976562c0 5.33301 0.333008 12.166 1 20.499s1 14.5 1 18.5c0 82 -17.333 145.833 -52 191.5s-83 68.5 -145 68.5c-65.333 0 -115.333 -24.333 -150 -73s-55.667 -124 -63 -226zM860 211.001c-41.333 -77.333 -93.8359 -136.333 -157.503 -177
s-135.5 -61 -215.5 -61c-119.333 0 -217.666 45.667 -294.999 137s-116 207.666 -116 348.999c0 140.667 39.333 257.334 118 350.001s175.667 139 291 139c102.667 0 187.334 -37.167 254.001 -111.5s101.334 -170.833 104.001 -289.5h-587
c-0.666992 -10 -1.16699 -20.667 -1.5 -32s-0.5 -27.333 -0.5 -48c0 -131.333 24.167 -232.833 72.5 -304.5s116.833 -107.5 205.5 -107.5c54.667 0 106 16 154 48s92.333 79.667 133 143zM413.997 1407h118l232 -348h-58l-233 211l-233 -211h-58z" />
    <glyph glyph-name="edieresis" unicode="&#xeb;" horiz-adv-x="915" 
d="M260 602l408 0.000976562c0 5.33301 0.333008 12.166 1 20.499s1 14.5 1 18.5c0 82 -17.333 145.833 -52 191.5s-83 68.5 -145 68.5c-65.333 0 -115.333 -24.333 -150 -73s-55.667 -124 -63 -226zM860 211.001c-41.333 -77.333 -93.8359 -136.333 -157.503 -177
s-135.5 -61 -215.5 -61c-119.333 0 -217.666 45.667 -294.999 137s-116 207.666 -116 348.999c0 140.667 39.333 257.334 118 350.001s175.667 139 291 139c102.667 0 187.334 -37.167 254.001 -111.5s101.334 -170.833 104.001 -289.5h-587
c-0.666992 -10 -1.16699 -20.667 -1.5 -32s-0.5 -27.333 -0.5 -48c0 -131.333 24.167 -232.833 72.5 -304.5s116.833 -107.5 205.5 -107.5c54.667 0 106 16 154 48s92.333 79.667 133 143zM648.997 1313c26.667 0 49.667 -9.83301 69 -29.5s29 -42.834 29 -69.501
c0 -28.667 -9.16699 -52.5 -27.5 -71.5s-41.833 -28.5 -70.5 -28.5s-52.5 9.5 -71.5 28.5s-28.5 42.833 -28.5 71.5c0 26.667 10 49.834 30 69.501s43.333 29.5 70 29.5zM296.997 1313c26.667 0 50 -9.83301 70 -29.5s30 -42.834 30 -69.501
c0 -28.667 -9.5 -52.5 -28.5 -71.5s-42.833 -28.5 -71.5 -28.5s-52.167 9.5 -70.5 28.5s-27.5 42.833 -27.5 71.5c0 26.667 9.66699 49.834 29 69.501s42.333 29.5 69 29.5z" />
    <glyph glyph-name="igrave" unicode="&#xec;" horiz-adv-x="653" 
d="M80 0l0.00292969 57h51c52 0 86.5 8 103.5 24s25.5 46.333 25.5 91v518c0 69.333 -8.83301 113.333 -26.5 132s-55.834 28 -114.501 28h-31v55c53.333 2 107.666 6 162.999 12s111.666 13.667 168.999 23v-768c0 -48 6.33301 -79.167 19 -93.5s41 -21.5 85 -21.5h54v-57
h-498zM198.003 1358l288.999 -298.999h-67l-330 205c-20.667 13.333 -36.167 26.666 -46.5 39.999s-15.5 27.333 -15.5 42c0 20 6.83301 36.833 20.5 50.5s30.834 20.5 51.501 20.5c14 0 28 -4 42 -12s32.667 -23.667 56 -47z" />
    <glyph glyph-name="iacute" unicode="&#xed;" horiz-adv-x="653" 
d="M80 0l0.00292969 57h51c52 0 86.5 8 103.5 24s25.5 46.333 25.5 91v518c0 69.333 -8.83301 113.333 -26.5 132s-55.834 28 -114.501 28h-31v55c53.333 2 107.666 6 162.999 12s111.666 13.667 168.999 23v-768c0 -48 6.33301 -79.167 19 -93.5s41 -21.5 85 -21.5h54v-57
h-498zM532.003 1264l-330.001 -205.001h-67l289 299c23.333 23.333 42 39 56 47s28 12 42 12c20.667 0 37.834 -6.83301 51.501 -20.5s20.5 -30.5 20.5 -50.5c0 -14.667 -5.16699 -28.667 -15.5 -42s-25.833 -26.666 -46.5 -39.999z" />
    <glyph glyph-name="icircumflex" unicode="&#xee;" horiz-adv-x="653" 
d="M80 0l0.00292969 57h51c52 0 86.5 8 103.5 24s25.5 46.333 25.5 91v518c0 69.333 -8.83301 113.333 -26.5 132s-55.834 28 -114.501 28h-31v55c53.333 2 107.666 6 162.999 12s111.666 13.667 168.999 23v-768c0 -48 6.33301 -79.167 19 -93.5s41 -21.5 85 -21.5h54v-57
h-498zM252.003 1407h118l232 -348h-58l-233 211l-233 -211h-58z" />
    <glyph glyph-name="idieresis" unicode="&#xef;" horiz-adv-x="653" 
d="M80 0l0.00292969 57h51c52 0 86.5 8 103.5 24s25.5 46.333 25.5 91v518c0 69.333 -8.83301 113.333 -26.5 132s-55.834 28 -114.501 28h-31v55c53.333 2 107.666 6 162.999 12s111.666 13.667 168.999 23v-768c0 -48 6.33301 -79.167 19 -93.5s41 -21.5 85 -21.5h54v-57
h-498zM487.003 1313c26.667 0 49.667 -9.83301 69 -29.5s29 -42.834 29 -69.501c0 -28.667 -9.16699 -52.5 -27.5 -71.5s-41.833 -28.5 -70.5 -28.5s-52.5 9.5 -71.5 28.5s-28.5 42.833 -28.5 71.5c0 26.667 10 49.834 30 69.501s43.333 29.5 70 29.5zM135.003 1313
c26.667 0 50 -9.83301 70 -29.5s30 -42.834 30 -69.501c0 -28.667 -9.5 -52.5 -28.5 -71.5s-42.833 -28.5 -71.5 -28.5s-52.167 9.5 -70.5 28.5s-27.5 42.833 -27.5 71.5c0 26.667 9.66699 49.834 29 69.501s42.333 29.5 69 29.5z" />
    <glyph glyph-name="eth" unicode="&#xf0;" horiz-adv-x="1038" 
d="M663 926l-66.002 126l-71 126l-321 -129l-19 43l316 131c-23.333 38.667 -49.166 77.5 -77.499 116.5s-59.833 78.5 -94.5 118.5l45 41c46 -38.667 88.667 -77.5 128 -116.5s75.666 -78.5 108.999 -118.5l289 116l19 -43l-275 -112c106 -136 185.167 -267.333 237.5 -394
s78.5 -250 78.5 -370c0 -146 -40.833 -263.5 -122.5 -352.5s-188.5 -133.5 -320.5 -133.5c-131.333 0 -237.833 45 -319.5 135s-122.5 207 -122.5 351c0 144.667 41 262 123 352s188.333 135 319 135c24.667 0 48.834 -1.83301 72.501 -5.5s47.834 -9.16699 72.501 -16.5z
M517.998 901c-84.667 0 -149.5 -37.332 -194.5 -111.999s-67.5 -183.334 -67.5 -326.001c0 -143.333 22.333 -252.166 67 -326.499s109.667 -111.5 195 -111.5c86.667 0 152.667 37.167 198 111.5s68 183.166 68 326.499c0 142 -22.667 250.5 -68 325.5
s-111.333 112.5 -198 112.5z" />
    <glyph glyph-name="ntilde" unicode="&#xf1;" horiz-adv-x="1229" 
d="M74 0l0.000976562 57.001h53c51.333 0 85.333 7.83301 102 23.5s25 46.167 25 91.5v518c0 70 -8.66699 114.167 -26 132.5s-55 27.5 -113 27.5h-31v55c53.333 2 107.666 6 162.999 12s111.666 13.667 168.999 23v-168c60 54 119 94.833 177 122.5s113.667 41.5 167 41.5
c92.667 0 158.5 -30.667 197.5 -92s58.5 -169.333 58.5 -324v-340c0 -52.667 6.83301 -86.334 20.5 -101.001s44.834 -22 93.501 -22h41v-57h-481v57h49c46 0 76.667 8 92 24s23 50.333 23 103v381c0 100 -14.5 170.833 -43.5 212.5s-77.167 62.5 -144.5 62.5
c-37.333 0 -77 -10 -119 -30s-85.667 -49.667 -131 -89v-549c0 -48 6.33301 -79.167 19 -93.5s41 -21.5 85 -21.5h51v-57h-497zM847.001 1356h54c-13.333 -69.333 -36.166 -120.833 -68.499 -154.5s-74.5 -50.5 -126.5 -50.5c-10 0 -21 0.833008 -33 2.5
s-25.333 4.16699 -40 7.5l-109 29c-8.66699 2 -17.834 3.5 -27.501 4.5s-19.5 1.5 -29.5 1.5c-22 0 -39.833 -7 -53.5 -21s-25.5 -37 -35.5 -69h-51c12.667 70.667 35.334 123.5 68.001 158.5s75.667 52.5 129 52.5c12.667 0 24 -0.666992 34 -2s19.667 -3.33301 29 -6
l111 -29c12 -3.33301 22.667 -5.83301 32 -7.5s17 -2.5 23 -2.5c24.667 0 44.167 6.5 58.5 19.5s26.166 35.167 35.499 66.5z" />
    <glyph glyph-name="ograve" unicode="&#xf2;" horiz-adv-x="1038" 
d="M518 901c-84.667 0 -149.5 -37.332 -194.5 -111.999s-67.5 -183.334 -67.5 -326.001c0 -143.333 22.333 -252.166 67 -326.499s109.667 -111.5 195 -111.5c86.667 0 152.667 37.167 198 111.5s68 183.166 68 326.499c0 142 -22.667 250.5 -68 325.5
s-111.333 112.5 -198 112.5zM518 948.001c131.333 0 238.333 -45.168 321 -135.501s124 -207.5 124 -351.5c0 -143.333 -41.5 -260.166 -124.5 -350.499s-189.833 -135.5 -320.5 -135.5c-131.333 0 -237.833 45 -319.5 135s-122.5 207 -122.5 351c0 144.667 41 262 123 352
s188.333 135 319 135zM407 1358l288.999 -298.999h-67l-330 205c-20.667 13.333 -36.167 26.666 -46.5 39.999s-15.5 27.333 -15.5 42c0 20 6.83301 36.833 20.5 50.5s30.834 20.5 51.501 20.5c14 0 28 -4 42 -12s32.667 -23.667 56 -47z" />
    <glyph glyph-name="oacute" unicode="&#xf3;" horiz-adv-x="1038" 
d="M518 901c-84.667 0 -149.5 -37.332 -194.5 -111.999s-67.5 -183.334 -67.5 -326.001c0 -143.333 22.333 -252.166 67 -326.499s109.667 -111.5 195 -111.5c86.667 0 152.667 37.167 198 111.5s68 183.166 68 326.499c0 142 -22.667 250.5 -68 325.5
s-111.333 112.5 -198 112.5zM518 948.001c131.333 0 238.333 -45.168 321 -135.501s124 -207.5 124 -351.5c0 -143.333 -41.5 -260.166 -124.5 -350.499s-189.833 -135.5 -320.5 -135.5c-131.333 0 -237.833 45 -319.5 135s-122.5 207 -122.5 351c0 144.667 41 262 123 352
s188.333 135 319 135zM741 1264l-330.001 -205.001h-67l289 299c23.333 23.333 42 39 56 47s28 12 42 12c20.667 0 37.834 -6.83301 51.501 -20.5s20.5 -30.5 20.5 -50.5c0 -14.667 -5.16699 -28.667 -15.5 -42s-25.833 -26.666 -46.5 -39.999z" />
    <glyph glyph-name="ocircumflex" unicode="&#xf4;" horiz-adv-x="1038" 
d="M518 901c-84.667 0 -149.5 -37.332 -194.5 -111.999s-67.5 -183.334 -67.5 -326.001c0 -143.333 22.333 -252.166 67 -326.499s109.667 -111.5 195 -111.5c86.667 0 152.667 37.167 198 111.5s68 183.166 68 326.499c0 142 -22.667 250.5 -68 325.5
s-111.333 112.5 -198 112.5zM518 948.001c131.333 0 238.333 -45.168 321 -135.501s124 -207.5 124 -351.5c0 -143.333 -41.5 -260.166 -124.5 -350.499s-189.833 -135.5 -320.5 -135.5c-131.333 0 -237.833 45 -319.5 135s-122.5 207 -122.5 351c0 144.667 41 262 123 352
s188.333 135 319 135zM461 1407h118l232 -348h-58l-233 211l-233 -211h-58z" />
    <glyph glyph-name="otilde" unicode="&#xf5;" horiz-adv-x="1038" 
d="M518 901c-84.667 0 -149.5 -37.332 -194.5 -111.999s-67.5 -183.334 -67.5 -326.001c0 -143.333 22.333 -252.166 67 -326.499s109.667 -111.5 195 -111.5c86.667 0 152.667 37.167 198 111.5s68 183.166 68 326.499c0 142 -22.667 250.5 -68 325.5
s-111.333 112.5 -198 112.5zM518 948.001c131.333 0 238.333 -45.168 321 -135.501s124 -207.5 124 -351.5c0 -143.333 -41.5 -260.166 -124.5 -350.499s-189.833 -135.5 -320.5 -135.5c-131.333 0 -237.833 45 -319.5 135s-122.5 207 -122.5 351c0 144.667 41 262 123 352
s188.333 135 319 135zM753 1356h54c-13.333 -69.333 -36.166 -120.833 -68.499 -154.5s-74.5 -50.5 -126.5 -50.5c-10 0 -21 0.833008 -33 2.5s-25.333 4.16699 -40 7.5l-109 29c-8.66699 2 -17.834 3.5 -27.501 4.5s-19.5 1.5 -29.5 1.5c-22 0 -39.833 -7 -53.5 -21
s-25.5 -37 -35.5 -69h-51c12.667 70.667 35.334 123.5 68.001 158.5s75.667 52.5 129 52.5c12.667 0 24 -0.666992 34 -2s19.667 -3.33301 29 -6l111 -29c12 -3.33301 22.667 -5.83301 32 -7.5s17 -2.5 23 -2.5c24.667 0 44.167 6.5 58.5 19.5s26.166 35.167 35.499 66.5z
" />
    <glyph glyph-name="odieresis" unicode="&#xf6;" horiz-adv-x="1038" 
d="M518 901c-84.667 0 -149.5 -37.332 -194.5 -111.999s-67.5 -183.334 -67.5 -326.001c0 -143.333 22.333 -252.166 67 -326.499s109.667 -111.5 195 -111.5c86.667 0 152.667 37.167 198 111.5s68 183.166 68 326.499c0 142 -22.667 250.5 -68 325.5
s-111.333 112.5 -198 112.5zM518 948.001c131.333 0 238.333 -45.168 321 -135.501s124 -207.5 124 -351.5c0 -143.333 -41.5 -260.166 -124.5 -350.499s-189.833 -135.5 -320.5 -135.5c-131.333 0 -237.833 45 -319.5 135s-122.5 207 -122.5 351c0 144.667 41 262 123 352
s188.333 135 319 135zM696 1313c26.667 0 49.667 -9.83301 69 -29.5s29 -42.834 29 -69.501c0 -28.667 -9.16699 -52.5 -27.5 -71.5s-41.833 -28.5 -70.5 -28.5s-52.5 9.5 -71.5 28.5s-28.5 42.833 -28.5 71.5c0 26.667 10 49.834 30 69.501s43.333 29.5 70 29.5zM344 1313
c26.667 0 50 -9.83301 70 -29.5s30 -42.834 30 -69.501c0 -28.667 -9.5 -52.5 -28.5 -71.5s-42.833 -28.5 -71.5 -28.5s-52.167 9.5 -70.5 28.5s-27.5 42.833 -27.5 71.5c0 26.667 9.66699 49.834 29 69.501s42.333 29.5 69 29.5z" />
    <glyph glyph-name="divide" unicode="&#xf7;" horiz-adv-x="1706" 
d="M854 365c31.333 0 58.333 -11.333 81 -34s34 -49.667 34 -81s-11.167 -58.333 -33.5 -81s-49.5 -34 -81.5 -34s-59.167 11.167 -81.5 33.5s-33.5 49.5 -33.5 81.5s11.333 59.167 34 81.5s49.667 33.5 81 33.5zM254 670h1198v-117h-1198v117zM854 1085
c32 0 59.167 -11.167 81.5 -33.5s33.5 -49.166 33.5 -80.499c0 -32 -11.167 -59.167 -33.5 -81.5s-49.5 -33.5 -81.5 -33.5c-32.667 0 -60 11.167 -82 33.5s-33 49.5 -33 81.5c0 31.333 11.333 58.166 34 80.499s49.667 33.5 81 33.5z" />
    <glyph glyph-name="oslash" unicode="&#xf8;" horiz-adv-x="1038" 
d="M115 -221l144.998 273.999c-62 51.333 -108.167 110.5 -138.5 177.5s-45.5 143.833 -45.5 230.5c0 144.667 41 262 123 352s188.333 135 319 135c32 0 64.333 -3.33301 97 -10s65.334 -17 98.001 -31l123 236h84l-142 -273c60.667 -48 106.667 -106.5 138 -175.5
s47 -146.833 47 -233.5c0 -143.333 -41.5 -260.166 -124.5 -350.499s-189.833 -135.5 -320.5 -135.5c-37.333 0 -72.166 3.66699 -104.499 11s-60.833 18 -85.5 32l-127 -239h-86zM726.998 771.999l-364.999 -683.998c19.333 -20.667 42.166 -36.334 68.499 -47.001
s55.5 -16 87.5 -16c86.667 0 152.667 37.167 198 111.5s68 183.166 68 326.499c0 70.667 -4.5 130.667 -13.5 180s-23.5 92.333 -43.5 129zM312.999 154.001l360.999 686.002c-18 18.667 -41 33.5 -69 44.5s-57 16.5 -87 16.5c-84.667 0 -149.5 -37.333 -194.5 -112
s-67.5 -183.334 -67.5 -326.001c0 -66.667 4.83301 -125.834 14.5 -177.501s23.834 -95.5 42.501 -131.5z" />
    <glyph glyph-name="ugrave" unicode="&#xf9;" horiz-adv-x="1200" 
d="M815 690c0 70 -8.66602 114.165 -25.999 132.498s-55 27.5 -113 27.5h-31v55c56.667 2 112.834 6 168.501 12s110.167 13.667 163.5 23v-713c0 -71.333 8.66699 -116 26 -134s55.666 -27 114.999 -27h29v-53c-59.333 -3.33301 -116.666 -8.16602 -171.999 -14.499
s-108.666 -14.166 -159.999 -23.499v170c-60.667 -54.667 -119.667 -95.5 -177 -122.5s-113 -40.5 -167 -40.5c-92.667 0 -158.5 30.5 -197.5 91.5s-58.5 169.5 -58.5 325.5v291c0 70 -8.66699 114.167 -26 132.5s-55 27.5 -113 27.5h-31v55c53.333 2 107.666 6 162.999 12
s111.666 13.667 168.999 23v-588c0 -99.333 14.5 -169.5 43.5 -210.5s77.167 -61.5 144.5 -61.5c36.667 0 75.667 9.66699 117 29s85.666 49.333 132.999 90v491zM475.001 1358l288.999 -298.999h-67l-330 205c-20.667 13.333 -36.167 26.666 -46.5 39.999
s-15.5 27.333 -15.5 42c0 20 6.83301 36.833 20.5 50.5s30.834 20.5 51.501 20.5c14 0 28 -4 42 -12s32.667 -23.667 56 -47z" />
    <glyph glyph-name="uacute" unicode="&#xfa;" horiz-adv-x="1200" 
d="M815 690c0 70 -8.66602 114.165 -25.999 132.498s-55 27.5 -113 27.5h-31v55c56.667 2 112.834 6 168.501 12s110.167 13.667 163.5 23v-713c0 -71.333 8.66699 -116 26 -134s55.666 -27 114.999 -27h29v-53c-59.333 -3.33301 -116.666 -8.16602 -171.999 -14.499
s-108.666 -14.166 -159.999 -23.499v170c-60.667 -54.667 -119.667 -95.5 -177 -122.5s-113 -40.5 -167 -40.5c-92.667 0 -158.5 30.5 -197.5 91.5s-58.5 169.5 -58.5 325.5v291c0 70 -8.66699 114.167 -26 132.5s-55 27.5 -113 27.5h-31v55c53.333 2 107.666 6 162.999 12
s111.666 13.667 168.999 23v-588c0 -99.333 14.5 -169.5 43.5 -210.5s77.167 -61.5 144.5 -61.5c36.667 0 75.667 9.66699 117 29s85.666 49.333 132.999 90v491zM809.001 1264l-330.001 -205.001h-67l289 299c23.333 23.333 42 39 56 47s28 12 42 12
c20.667 0 37.834 -6.83301 51.501 -20.5s20.5 -30.5 20.5 -50.5c0 -14.667 -5.16699 -28.667 -15.5 -42s-25.833 -26.666 -46.5 -39.999z" />
    <glyph glyph-name="ucircumflex" unicode="&#xfb;" horiz-adv-x="1200" 
d="M815 690c0 70 -8.66602 114.165 -25.999 132.498s-55 27.5 -113 27.5h-31v55c56.667 2 112.834 6 168.501 12s110.167 13.667 163.5 23v-713c0 -71.333 8.66699 -116 26 -134s55.666 -27 114.999 -27h29v-53c-59.333 -3.33301 -116.666 -8.16602 -171.999 -14.499
s-108.666 -14.166 -159.999 -23.499v170c-60.667 -54.667 -119.667 -95.5 -177 -122.5s-113 -40.5 -167 -40.5c-92.667 0 -158.5 30.5 -197.5 91.5s-58.5 169.5 -58.5 325.5v291c0 70 -8.66699 114.167 -26 132.5s-55 27.5 -113 27.5h-31v55c53.333 2 107.666 6 162.999 12
s111.666 13.667 168.999 23v-588c0 -99.333 14.5 -169.5 43.5 -210.5s77.167 -61.5 144.5 -61.5c36.667 0 75.667 9.66699 117 29s85.666 49.333 132.999 90v491zM529.001 1407h118l232 -348h-58l-233 211l-233 -211h-58z" />
    <glyph glyph-name="udieresis" unicode="&#xfc;" horiz-adv-x="1200" 
d="M815 690c0 70 -8.66602 114.165 -25.999 132.498s-55 27.5 -113 27.5h-31v55c56.667 2 112.834 6 168.501 12s110.167 13.667 163.5 23v-713c0 -71.333 8.66699 -116 26 -134s55.666 -27 114.999 -27h29v-53c-59.333 -3.33301 -116.666 -8.16602 -171.999 -14.499
s-108.666 -14.166 -159.999 -23.499v170c-60.667 -54.667 -119.667 -95.5 -177 -122.5s-113 -40.5 -167 -40.5c-92.667 0 -158.5 30.5 -197.5 91.5s-58.5 169.5 -58.5 325.5v291c0 70 -8.66699 114.167 -26 132.5s-55 27.5 -113 27.5h-31v55c53.333 2 107.666 6 162.999 12
s111.666 13.667 168.999 23v-588c0 -99.333 14.5 -169.5 43.5 -210.5s77.167 -61.5 144.5 -61.5c36.667 0 75.667 9.66699 117 29s85.666 49.333 132.999 90v491zM764.001 1313c26.667 0 49.667 -9.83301 69 -29.5s29 -42.834 29 -69.501
c0 -28.667 -9.16699 -52.5 -27.5 -71.5s-41.833 -28.5 -70.5 -28.5s-52.5 9.5 -71.5 28.5s-28.5 42.833 -28.5 71.5c0 26.667 10 49.834 30 69.501s43.333 29.5 70 29.5zM412.001 1313c26.667 0 50 -9.83301 70 -29.5s30 -42.834 30 -69.501
c0 -28.667 -9.5 -52.5 -28.5 -71.5s-42.833 -28.5 -71.5 -28.5s-52.167 9.5 -70.5 28.5s-27.5 42.833 -27.5 71.5c0 26.667 9.66699 49.834 29 69.501s42.333 29.5 69 29.5z" />
    <glyph glyph-name="yacute" unicode="&#xfd;" 
d="M434 131l-248 579.998v0c-46 104.667 -99 157 -159 157h-17v56h422v-56c-40 0 -67.667 -4.33301 -83 -13s-23 -24 -23 -46c0 -16 7.33301 -43.333 22 -82c2 -4.66699 3.33301 -8 4 -10l228 -551l221 508c12 28.667 21.167 53.334 27.5 74.001s9.5 37.667 9.5 51
c0 22.667 -8.66699 39.834 -26 51.501s-43 17.5 -77 17.5h-24v56h346v-56h-8c-34 0 -64.5 -12 -91.5 -36s-51.833 -61.667 -74.5 -113l-367 -801c-51.333 -112.667 -112.333 -199.834 -183 -261.501s-144 -92.5 -220 -92.5c-40 0 -70.833 8.33301 -92.5 25
s-32.5 40.334 -32.5 71.001c0 31.333 9.16699 56.166 27.5 74.499s43.166 27.5 74.499 27.5c20 0 49.833 -8.5 89.5 -25.5s69.167 -25.5 88.5 -25.5c18 0 35.5 6 52.5 18s34.5 30.667 52.5 56c35.333 52 59.833 93.833 73.5 125.5s20.5 60.834 20.5 87.501
c0 20 -2.66699 40.833 -8 62.5s-13.666 45.167 -24.999 70.5zM733 1264l-330.001 -205.001h-67l289 299c23.333 23.333 42 39 56 47s28 12 42 12c20.667 0 37.834 -6.83301 51.501 -20.5s20.5 -30.5 20.5 -50.5c0 -14.667 -5.16699 -28.667 -15.5 -42
s-25.833 -26.666 -46.5 -39.999z" />
    <glyph glyph-name="thorn" unicode="&#xfe;" horiz-adv-x="1096" 
d="M328 135c40 -35.333 79.668 -61.5 119.001 -78.5s78.666 -25.5 117.999 -25.5c90.667 0 160.167 36.5 208.5 109.5s72.5 177.833 72.5 314.5c0 138.667 -23.333 245 -70 319s-113.667 111 -201 111c-40 0 -80.833 -9 -122.5 -27s-83.167 -44.667 -124.5 -80v-643z
M328.001 -240c0 -48.667 6.5 -80.167 19.5 -94.5s41.167 -21.5 84.5 -21.5h70v-58h-514v58h51c50.667 0 84.5 8 101.5 24s25.5 46.667 25.5 92v1483c0 70 -8.66699 114.167 -26 132.5s-55 27.5 -113 27.5h-31v55c53.333 2 107.666 5.83301 162.999 11.5
s111.666 13.5 168.999 23.5v-657c44 34 89.333 59.5 136 76.5s94.667 25.5 144 25.5c118.667 0 217.334 -45.667 296.001 -137s118 -206 118 -344c0 -140 -39.667 -255.333 -119 -346s-179.666 -136 -300.999 -136c-48 0 -94.833 8 -140.5 24s-90.167 40.333 -133.5 73v-312
z" />
    <glyph glyph-name="ydieresis" unicode="&#xff;" 
d="M434 131l-248 579.998v0c-46 104.667 -99 157 -159 157h-17v56h422v-56c-40 0 -67.667 -4.33301 -83 -13s-23 -24 -23 -46c0 -16 7.33301 -43.333 22 -82c2 -4.66699 3.33301 -8 4 -10l228 -551l221 508c12 28.667 21.167 53.334 27.5 74.001s9.5 37.667 9.5 51
c0 22.667 -8.66699 39.834 -26 51.501s-43 17.5 -77 17.5h-24v56h346v-56h-8c-34 0 -64.5 -12 -91.5 -36s-51.833 -61.667 -74.5 -113l-367 -801c-51.333 -112.667 -112.333 -199.834 -183 -261.501s-144 -92.5 -220 -92.5c-40 0 -70.833 8.33301 -92.5 25
s-32.5 40.334 -32.5 71.001c0 31.333 9.16699 56.166 27.5 74.499s43.166 27.5 74.499 27.5c20 0 49.833 -8.5 89.5 -25.5s69.167 -25.5 88.5 -25.5c18 0 35.5 6 52.5 18s34.5 30.667 52.5 56c35.333 52 59.833 93.833 73.5 125.5s20.5 60.834 20.5 87.501
c0 20 -2.66699 40.833 -8 62.5s-13.666 45.167 -24.999 70.5zM688 1313c26.667 0 49.667 -9.83301 69 -29.5s29 -42.834 29 -69.501c0 -28.667 -9.16699 -52.5 -27.5 -71.5s-41.833 -28.5 -70.5 -28.5s-52.5 9.5 -71.5 28.5s-28.5 42.833 -28.5 71.5
c0 26.667 10 49.834 30 69.501s43.333 29.5 70 29.5zM336 1313c26.667 0 50 -9.83301 70 -29.5s30 -42.834 30 -69.501c0 -28.667 -9.5 -52.5 -28.5 -71.5s-42.833 -28.5 -71.5 -28.5s-52.167 9.5 -70.5 28.5s-27.5 42.833 -27.5 71.5c0 26.667 9.66699 49.834 29 69.501
s42.333 29.5 69 29.5z" />
    <glyph glyph-name="Cacute" unicode="&#x106;" horiz-adv-x="1470" 
d="M1386 328c-62 -116 -144.667 -205.165 -248 -267.498s-220.666 -93.5 -351.999 -93.5c-88.667 0 -170.167 13.667 -244.5 41s-140.166 67.666 -197.499 120.999c-77.333 71.333 -135.833 157.5 -175.5 258.5s-59.5 214.167 -59.5 339.5c0 124.667 19.333 236 58 334
s95.667 180.667 171 248c61.333 54.667 129.166 96.334 203.499 125.001s153.166 43 236.499 43c66 0 136.5 -12.667 211.5 -38s118.5 -38 130.5 -38c22 0 40.167 5.5 54.5 16.5s28.5 30.833 42.5 59.5h65l84 -441l-63 -8c-52.667 125.333 -122.5 221.166 -209.5 287.499
s-186.5 99.5 -298.5 99.5c-152 0 -268.167 -58.667 -348.5 -176s-120.5 -287.333 -120.5 -510c0 -219.333 43.5 -389.833 130.5 -511.5s209.167 -182.5 366.5 -182.5c103.333 0 198.833 27.667 286.5 83s165.5 136.666 233.5 243.999zM1024 1794l-330.001 -205.001h-67
l289 299c23.333 23.333 42 39 56 47s28 12 42 12c20.667 0 37.834 -6.83301 51.501 -20.5s20.5 -30.5 20.5 -50.5c0 -14.667 -5.16699 -28.667 -15.5 -42s-25.833 -26.666 -46.5 -39.999z" />
    <glyph glyph-name="cacute" unicode="&#x107;" horiz-adv-x="909" 
d="M889 154c-54 -60 -111.001 -104.833 -171.001 -134.5s-124.667 -44.5 -194 -44.5c-130 0 -237.5 46 -322.5 138s-127.5 208.667 -127.5 350c0 140 43.667 255.833 131 347.5s197.333 137.5 330 137.5c89.333 0 163.833 -15.667 223.5 -47s89.5 -69 89.5 -113
c0 -23.333 -8.16699 -42.666 -24.5 -57.999s-36.833 -23 -61.5 -23c-40 0 -82.667 33 -128 99l-28 40c-11.333 16 -27 28.5 -47 37.5s-41.667 13.5 -65 13.5c-75.333 0 -133.833 -35.333 -175.5 -106s-62.5 -170.334 -62.5 -299.001c0 -138 27.833 -247 83.5 -327
s130.834 -120 225.501 -120c49.333 0 98 12.5 146 37.5s94.333 61.833 139 110.5zM736.999 1264l-330.001 -205.001h-67l289 299c23.333 23.333 42 39 56 47s28 12 42 12c20.667 0 37.834 -6.83301 51.501 -20.5s20.5 -30.5 20.5 -50.5
c0 -14.667 -5.16699 -28.667 -15.5 -42s-25.833 -26.666 -46.5 -39.999z" />
    <glyph glyph-name="Ccaron" unicode="&#x10c;" horiz-adv-x="1470" 
d="M1386 328c-62 -116 -144.667 -205.165 -248 -267.498s-220.666 -93.5 -351.999 -93.5c-88.667 0 -170.167 13.667 -244.5 41s-140.166 67.666 -197.499 120.999c-77.333 71.333 -135.833 157.5 -175.5 258.5s-59.5 214.167 -59.5 339.5c0 124.667 19.333 236 58 334
s95.667 180.667 171 248c61.333 54.667 129.166 96.334 203.499 125.001s153.166 43 236.499 43c66 0 136.5 -12.667 211.5 -38s118.5 -38 130.5 -38c22 0 40.167 5.5 54.5 16.5s28.5 30.833 42.5 59.5h65l84 -441l-63 -8c-52.667 125.333 -122.5 221.166 -209.5 287.499
s-186.5 99.5 -298.5 99.5c-152 0 -268.167 -58.667 -348.5 -176s-120.5 -287.333 -120.5 -510c0 -219.333 43.5 -389.833 130.5 -511.5s209.167 -182.5 366.5 -182.5c103.333 0 198.833 27.667 286.5 83s165.5 136.666 233.5 243.999zM512 1937h58l233 -211l233 211h58
l-232 -348h-118z" />
    <glyph glyph-name="ccaron" unicode="&#x10d;" horiz-adv-x="909" 
d="M889 154c-54 -60 -111.001 -104.833 -171.001 -134.5s-124.667 -44.5 -194 -44.5c-130 0 -237.5 46 -322.5 138s-127.5 208.667 -127.5 350c0 140 43.667 255.833 131 347.5s197.333 137.5 330 137.5c89.333 0 163.833 -15.667 223.5 -47s89.5 -69 89.5 -113
c0 -23.333 -8.16699 -42.666 -24.5 -57.999s-36.833 -23 -61.5 -23c-40 0 -82.667 33 -128 99l-28 40c-11.333 16 -27 28.5 -47 37.5s-41.667 13.5 -65 13.5c-75.333 0 -133.833 -35.333 -175.5 -106s-62.5 -170.334 -62.5 -299.001c0 -138 27.833 -247 83.5 -327
s130.834 -120 225.501 -120c49.333 0 98 12.5 146 37.5s94.333 61.833 139 110.5zM224.999 1407h58l233 -211l233 211h58l-232 -348h-118z" />
    <glyph glyph-name="dcroat" unicode="&#x111;" horiz-adv-x="1178" 
d="M764 786c-41.333 35.333 -81.333 61.333 -120 78s-78 25 -118 25c-90.667 0 -160 -36.333 -208 -109s-72 -177.667 -72 -315c0 -136 23.833 -241.667 71.5 -317s114.5 -113 200.5 -113c41.333 0 82.333 9.16699 123 27.5s81.667 45.833 123 82.5v641zM764 1243
c0 72 -8.66602 116.669 -25.999 134.002s-59.333 26 -126 26h-22v55c53.333 2 108.166 6 164.499 12s113.5 13.667 171.5 23v-299h229v-57h-229v-906c0 -71.333 8.5 -116 25.5 -134s55.5 -27 115.5 -27h33v-53c-56.667 -2.66699 -113 -6.83398 -169 -12.501
s-111.667 -13.167 -167 -22.5v104c-49.333 -36 -96.833 -62.667 -142.5 -80s-91.834 -26 -138.501 -26c-116 0 -213.833 46.167 -293.5 138.5s-119.5 207.166 -119.5 344.499c0 138.667 39.667 253.5 119 344.5s179.333 136.5 300 136.5
c49.333 0 96.833 -7.83301 142.5 -23.5s89.834 -39.167 132.501 -70.5v287h-346v57h346v49z" />
    <glyph glyph-name="Gbreve" unicode="&#x11e;" horiz-adv-x="1563" 
d="M1274 -2c-12 19.333 -25.668 33.6641 -41.001 42.9971s-32.333 14 -51 14c-12.667 0 -61 -14.667 -145 -44s-166 -44 -246 -44c-201.333 0 -364.666 67.833 -489.999 203.5s-188 312.834 -188 531.501c0 106.667 15.167 205.667 45.5 297s75.166 173.333 134.499 246
c60.667 74.667 133.334 132.334 218.001 173.001s173.667 61 267 61c42.667 0 84.834 -4.5 126.501 -13.5s82.834 -22.5 123.501 -40.5c16.667 -7.33301 42.667 -21.333 78 -42s62.666 -31 81.999 -31c18.667 0 35 6 49 18s25 29.667 33 53h73v-446h-57
c-44 144.667 -108.333 254.167 -193 328.5s-187.667 111.5 -309 111.5c-147.333 0 -259.5 -60 -336.5 -180s-115.5 -294.667 -115.5 -524c0 -233.333 37.667 -405.333 113 -516s192 -166 350 -166c116.667 0 206.5 26 269.5 78s94.5 126.333 94.5 223v78
c0 52 -10.333 86.833 -31 104.5s-74.334 29.834 -161.001 36.501v57h563v-57c-79.333 0 -131 -10.667 -155 -32s-36 -82.333 -36 -183v-338h-65zM488.999 1898h51.002c11.333 -49.333 36.166 -85.166 74.499 -107.499s94.166 -33.5 167.499 -33.5
c72.667 0 128 11.167 166 33.5s62.667 58.166 74 107.499h51c-13.333 -88.667 -44.666 -155.834 -93.999 -201.501s-115 -68.5 -197 -68.5c-82.667 0 -148.834 22.833 -198.501 68.5s-81.167 112.834 -94.5 201.501z" />
    <glyph glyph-name="gbreve" unicode="&#x11f;" horiz-adv-x="1036" 
d="M512 387c56 0 100.667 23.168 134 69.501s50 109.166 50 188.499c0 78.667 -16.667 141 -50 187s-78 69 -134 69c-56.667 0 -101.167 -22.667 -133.5 -68s-48.5 -108 -48.5 -188s16.167 -143 48.5 -189s76.833 -69 133.5 -69zM285 49.001
c-36.667 -32.667 -63.668 -65.499 -81.001 -98.499s-26 -68.5 -26 -106.5c0 -72.667 27.5 -128.667 82.5 -168s133.5 -59 235.5 -59c108 0 192.667 19.5 254 58.5s92 92.5 92 160.5c0 43.333 -13.667 77.666 -41 102.999s-71 44.333 -131 57
c-28.667 6 -86.167 13.667 -172.5 23s-157.166 19.333 -212.499 30zM241.999 66.002c-32.667 8 -57.3291 20.6631 -73.9961 37.9961s-25 39.333 -25 66c0 27.333 11.5 58.333 34.5 93s64.167 80.667 123.5 138c-44.667 28.667 -78.334 62.834 -101.001 102.501
s-34 84.834 -34 135.501c0 93.333 31 168.166 93 224.499s145 84.5 249 84.5c58 0 110.833 -9.5 158.5 -28.5s91.834 -48.5 132.501 -88.5c45.333 47.333 81.166 78.666 107.499 93.999s53.166 23 80.499 23c26 0 48.5 -9.33301 67.5 -28s28.5 -40.667 28.5 -66
s-8.5 -46.666 -25.5 -63.999s-38.5 -26 -64.5 -26c-18 0 -41 7.5 -69 22.5s-48 22.5 -60 22.5c-5.33301 0 -11 -1.66699 -17 -5s-12.667 -8.66602 -20 -15.999c11.333 -24 19.666 -46.833 24.999 -68.5s8 -43.167 8 -64.5c0 -94.667 -30.667 -170.834 -92 -228.501
s-142 -86.5 -242 -86.5c-33.333 0 -65.5 3 -96.5 9s-61.5 15.333 -91.5 28c-22.667 -25.333 -38.667 -46.166 -48 -62.499s-14 -31.833 -14 -46.5c0 -27.333 11.333 -48.166 34 -62.499s60 -24.166 112 -29.499c30.667 -3.33301 73 -7.33301 127 -12
c101.333 -8.66699 166.666 -18.334 195.999 -29.001c79.333 -26.667 136.5 -59.667 171.5 -99s52.5 -89.666 52.5 -150.999c0 -91.333 -43.5 -166.666 -130.5 -225.999s-199.833 -89 -338.5 -89c-138 0 -247 22.5 -327 67.5s-120 105.833 -120 182.5
c0 39.333 13 76.666 39 111.999s76 80 150 134zM225.004 1368h51.002c11.333 -49.333 36.166 -85.166 74.499 -107.499s94.166 -33.5 167.499 -33.5c72.667 0 128 11.167 166 33.5s62.667 58.166 74 107.499h51c-13.333 -88.667 -44.666 -155.834 -93.999 -201.501
s-115 -68.5 -197 -68.5c-82.667 0 -148.834 22.833 -198.501 68.5s-81.167 112.834 -94.5 201.501z" />
    <glyph glyph-name="Idotaccent" unicode="&#x130;" horiz-adv-x="901" 
d="M549 238c0 -79.333 12 -129.333 36 -150s78.333 -31 163 -31h63v-57h-721v57h64c83.333 0 136.833 10.167 160.5 30.5s35.5 70.5 35.5 150.5v970c0 80 -11.833 130.167 -35.5 150.5s-77.167 30.5 -160.5 30.5h-64v57h721v-57h-63c-84.667 0 -139 -10.333 -163 -31
s-36 -70.667 -36 -150v-970zM451 1849c28.667 0 53.167 -10.333 73.5 -31s30.5 -45.334 30.5 -74.001s-10 -53.5 -30 -74.5s-44.667 -31.5 -74 -31.5c-28.667 0 -53.167 10.333 -73.5 31s-30.5 45.667 -30.5 75c0 28.667 10.333 53.334 31 74.001s45 31 73 31z" />
    <glyph glyph-name="dotlessi" unicode="&#x131;" horiz-adv-x="653" 
d="M80 0l0.00292969 57h51c52 0 86.5 8 103.5 24s25.5 46.333 25.5 91v518c0 69.333 -8.83301 113.333 -26.5 132s-55.834 28 -114.501 28h-31v55c53.333 2 107.666 6 162.999 12s111.666 13.667 168.999 23v-768c0 -48 6.33301 -79.167 19 -93.5s41 -21.5 85 -21.5h54v-57
h-498z" />
    <glyph glyph-name="Lslash" unicode="&#x141;" horiz-adv-x="1419" 
d="M858 1446l0.000976562 -57h-63c-84.667 0 -139 -10.333 -163 -31s-36 -70.667 -36 -150v-385l344 226v-78l-344 -228v-495c0 -82 14.667 -132.833 44 -152.5s91.666 -29.5 186.999 -29.5c130.667 0 235 31 313 93s148 170 210 324l71 -16l-106 -467h-1180v57h64
c84 0 138 10.333 162 31s36 70.667 36 150v421l-262 -172v78l262 172v471c0 79.333 -12 129.333 -36 150s-78 31 -162 31h-64v57h723z" />
    <glyph glyph-name="lslash" unicode="&#x142;" horiz-adv-x="711" 
d="M98 0l0.00195312 57h52c51.333 0 85.666 8 102.999 24s26 46.333 26 91v522l-181 -125v70l181 125v479c0 70 -8.66699 114.167 -26 132.5s-55.333 27.5 -114 27.5h-30v55c53.333 2 107.666 5.83301 162.999 11.5s111.333 13.5 168 23.5v-655l181 125v-70l-181 -125v-596
c0 -48 6.5 -79.167 19.5 -93.5s41.5 -21.5 85.5 -21.5h51v-57h-498z" />
    <glyph glyph-name="OE" unicode="&#x152;" horiz-adv-x="2241" 
d="M1120 432v637.003c0 117.333 -23.333 199.5 -70 246.5s-126.334 70.5 -239.001 70.5c-159.333 0 -279.666 -55.833 -360.999 -167.5s-122 -276.834 -122 -495.501s40.833 -383.334 122.5 -494.001s203.167 -166 364.5 -166c113.333 0 192.5 26.167 237.5 78.5
s67.5 149.166 67.5 290.499zM1577 66.0029c131.333 0 232.334 30.499 303.001 91.499s126 166.167 166 315.5l74 -14l-92 -459h-1065c-126 0 -222.667 5.5 -290 16.5s-129.333 28.833 -186 53.5c-121.333 54 -214.666 137.333 -279.999 250s-98 247 -98 403
c0 150.667 33.333 282.834 100 396.501s161.667 199.167 285 256.5c52 25.333 111.167 43.333 177.5 54s166.166 16 299.499 16h1026l39 -371h-72c-28.667 114 -71.834 193.333 -129.501 238s-147.5 67 -269.5 67h-74c-69.333 0 -115.333 -10.833 -138 -32.5
s-34 -68.167 -34 -139.5v-409c6 -0.666992 12.667 -1.16699 20 -1.5s17.666 -0.5 30.999 -0.5c92 0 158.667 19.667 200 59s62 103 62 191v6h64v-576h-63c-1.33301 94 -22.5 160.833 -63.5 200.5s-110.167 59.5 -207.5 59.5h-43v-489c0 -82 14.333 -132.833 43 -152.5
s85.334 -29.5 170.001 -29.5h45z" />
    <glyph glyph-name="oe" unicode="&#x153;" horiz-adv-x="1622" 
d="M967 602h407c0 4.66699 0.333008 11.334 1 20.001s1 15.667 1 21c0 81.333 -17 144.666 -51 189.999s-81.667 68 -143 68c-66.667 0 -117.667 -24.667 -153 -74s-56 -124.333 -62 -225zM518 901c-84.667 0 -149.5 -37.332 -194.5 -111.999s-67.5 -183.334 -67.5 -326.001
c0 -143.333 22.333 -252.166 67 -326.499s109.667 -111.5 195 -111.5c86.667 0 152.667 37.167 198 111.5s68 183.166 68 326.499c0 142 -22.667 250.5 -68 325.5s-111.333 112.5 -198 112.5zM872 772.001c45.333 58 94.832 101.833 148.499 131.5
s110.834 44.5 171.501 44.5c102 0 186.5 -37.333 253.5 -112s101.833 -171 104.5 -289h-587c-1.33301 -10.667 -2 -21.5 -2 -32.5v-47.5c0 -131.333 24.167 -232.833 72.5 -304.5s116.833 -107.5 205.5 -107.5c54.667 0 106 16 154 48s92.333 79.667 133 143l41 -35
c-40.667 -76.667 -93 -135.5 -157 -176.5s-136 -61.5 -216 -61.5c-68.667 0 -131.167 15.5 -187.5 46.5s-101.833 75.167 -136.5 132.5c-41.333 -58 -92 -102.333 -152 -133s-126.667 -46 -200 -46c-130.667 0 -237 45.167 -319 135.5s-123 207.833 -123 352.5
s41 262 123 352s188.333 135 319 135c74.667 0 141.5 -14.667 200.5 -44s110.167 -73.333 153.5 -132z" />
    <glyph glyph-name="Scedilla" unicode="&#x15e;" horiz-adv-x="1233" 
d="M184 12l-15.9971 391.003h63c40 -115.333 99.667 -206.5 179 -273.5s166.666 -100.5 261.999 -100.5c88 0 159.5 27.5 214.5 82.5s82.5 126.5 82.5 214.5c0 68.667 -19.667 124.5 -59 167.5s-131.666 94.167 -276.999 153.5l-64 25
c-129.333 49.333 -221.333 101 -276 155c-36.667 36 -64.667 77.167 -84 123.5s-29 96.166 -29 149.499c0 108.667 35.667 199 107 271s160.666 108 267.999 108c62 0 126.667 -13 194 -39s104.333 -39 111 -39c15.333 0 28.833 3.66699 40.5 11s21.5 18.666 29.5 33.999h65
l49 -318h-57c-47.333 94.667 -106.833 167.167 -178.5 217.5s-150.834 75.5 -237.501 75.5c-80 0 -143.667 -22 -191 -66s-71 -103 -71 -177c0 -37.333 6 -70.833 18 -100.5s29.333 -55.167 52 -76.5c45.333 -43.333 125 -87 239 -131l52 -20l44 -18
c136.667 -54 233.334 -111.667 290.001 -173c32.667 -36 56.834 -76 72.501 -120s23.5 -95.333 23.5 -154c0 -118.667 -41.5 -217.667 -124.5 -297s-187.5 -119 -313.5 -119c-60.667 0 -127.834 16.167 -201.501 48.5s-117.834 48.5 -132.501 48.5
c-20.667 0 -37.834 -4.33301 -51.501 -13s-24.5 -22.334 -32.5 -41.001h-60zM536.003 0.00292969l63.999 0.00195312v-112c12 2 22.667 3.33301 32 4l29 2c57.333 0 102 -14.5 134 -43.5s48 -69.167 48 -120.5c0 -54.667 -19.5 -97.667 -58.5 -129s-92.5 -47 -160.5 -47
c-36 0 -76.5 5.66699 -121.5 17s-102.167 30.666 -171.5 57.999l33 78c40.667 -22.667 80.5 -40.334 119.5 -53.001s73.5 -19 103.5 -19c42.667 0 73.834 7.5 93.501 22.5s29.5 38.5 29.5 70.5c0 28 -10 50 -30 66s-48 24 -84 24c-8.66699 0 -18 -0.5 -28 -1.5
s-20.667 -2.5 -32 -4.5v188z" />
    <glyph glyph-name="scedilla" unicode="&#x15f;" horiz-adv-x="854" 
d="M106 -18l-0.000976562 279.999h58c10 -72 40.667 -128.5 92 -169.5s117 -61.5 197 -61.5c66.667 0 120.834 17 162.501 51s62.5 78.333 62.5 133c0 81.333 -84 145 -252 191c-12.667 3.33301 -22.334 6 -29.001 8c-101.333 28 -174 63.333 -218 106s-66 98.667 -66 168
c0 78 25.333 140.167 76 186.5s119.334 69.5 206.001 69.5c36.667 0 73.167 -5 109.5 -15s70.166 -24.667 101.499 -44l31 63h57v-239h-55c-16.667 60 -48 106.333 -94 139s-103.333 49 -172 49c-50 0 -90.167 -13.167 -120.5 -39.5s-45.5 -60.833 -45.5 -103.5
c0 -41.333 14.5 -74.166 43.5 -98.499s97.167 -51.833 204.5 -82.5c126.667 -36.667 211.834 -76.5 255.501 -119.5s65.5 -102.167 65.5 -177.5c0 -89.333 -30.667 -161 -92 -215s-143.333 -81 -246 -81c-44 0 -86.167 6.5 -126.5 19.5s-80.833 33.5 -121.5 61.5l-26 -79
h-58zM347.999 -0.000976562l63.999 0.00195312v-112c12 2 22.667 3.33301 32 4l29 2c57.333 0 102 -14.5 134 -43.5s48 -69.167 48 -120.5c0 -54.667 -19.5 -97.667 -58.5 -129s-92.5 -47 -160.5 -47c-36 0 -76.5 5.66699 -121.5 17s-102.167 30.666 -171.5 57.999l33 78
c40.667 -22.667 80.5 -40.334 119.5 -53.001s73.5 -19 103.5 -19c42.667 0 73.834 7.5 93.501 22.5s29.5 38.5 29.5 70.5c0 28 -10 50 -30 66s-48 24 -84 24c-8.66699 0 -18 -0.5 -28 -1.5s-20.667 -2.5 -32 -4.5v188z" />
    <glyph glyph-name="Scaron" unicode="&#x160;" horiz-adv-x="1233" 
d="M184 12l-15.9971 391.003h63c40 -115.333 99.667 -206.5 179 -273.5s166.666 -100.5 261.999 -100.5c88 0 159.5 27.5 214.5 82.5s82.5 126.5 82.5 214.5c0 68.667 -19.667 124.5 -59 167.5s-131.666 94.167 -276.999 153.5l-64 25
c-129.333 49.333 -221.333 101 -276 155c-36.667 36 -64.667 77.167 -84 123.5s-29 96.166 -29 149.499c0 108.667 35.667 199 107 271s160.666 108 267.999 108c62 0 126.667 -13 194 -39s104.333 -39 111 -39c15.333 0 28.833 3.66699 40.5 11s21.5 18.666 29.5 33.999h65
l49 -318h-57c-47.333 94.667 -106.833 167.167 -178.5 217.5s-150.834 75.5 -237.501 75.5c-80 0 -143.667 -22 -191 -66s-71 -103 -71 -177c0 -37.333 6 -70.833 18 -100.5s29.333 -55.167 52 -76.5c45.333 -43.333 125 -87 239 -131l52 -20l44 -18
c136.667 -54 233.334 -111.667 290.001 -173c32.667 -36 56.834 -76 72.501 -120s23.5 -95.333 23.5 -154c0 -118.667 -41.5 -217.667 -124.5 -297s-187.5 -119 -313.5 -119c-60.667 0 -127.834 16.167 -201.501 48.5s-117.834 48.5 -132.501 48.5
c-20.667 0 -37.834 -4.33301 -51.501 -13s-24.5 -22.334 -32.5 -41.001h-60zM325.003 1937h58l233 -211l233 211h58l-232 -348h-118z" />
    <glyph glyph-name="scaron" unicode="&#x161;" horiz-adv-x="854" 
d="M106 -18l-0.000976562 279.999h58c10 -72 40.667 -128.5 92 -169.5s117 -61.5 197 -61.5c66.667 0 120.834 17 162.501 51s62.5 78.333 62.5 133c0 81.333 -84 145 -252 191c-12.667 3.33301 -22.334 6 -29.001 8c-101.333 28 -174 63.333 -218 106s-66 98.667 -66 168
c0 78 25.333 140.167 76 186.5s119.334 69.5 206.001 69.5c36.667 0 73.167 -5 109.5 -15s70.166 -24.667 101.499 -44l31 63h57v-239h-55c-16.667 60 -48 106.333 -94 139s-103.333 49 -172 49c-50 0 -90.167 -13.167 -120.5 -39.5s-45.5 -60.833 -45.5 -103.5
c0 -41.333 14.5 -74.166 43.5 -98.499s97.167 -51.833 204.5 -82.5c126.667 -36.667 211.834 -76.5 255.501 -119.5s65.5 -102.167 65.5 -177.5c0 -89.333 -30.667 -161 -92 -215s-143.333 -81 -246 -81c-44 0 -86.167 6.5 -126.5 19.5s-80.833 33.5 -121.5 61.5l-26 -79
h-58zM136.999 1407h58l233 -211l233 211h58l-232 -348h-118z" />
    <glyph glyph-name="Ydieresis" unicode="&#x178;" horiz-adv-x="1356" 
d="M801 238c0 -80 11.832 -130.169 35.499 -150.502s77.167 -30.5 160.5 -30.5h64v-57h-721v57h63c84.667 0 139 10.333 163 31s36 70.667 36 150v260l-346 696c-40 80.667 -76 132.667 -108 156s-75.333 36.333 -130 39v57h588v-57c-62 -1.33301 -105.5 -9 -130.5 -23
s-37.5 -37.333 -37.5 -70c0 -13.333 2 -27.666 6 -42.999s9.66699 -31 17 -47l313 -657l299 575c18.667 34.667 32.167 64.834 40.5 90.501s12.5 48.167 12.5 67.5c0 36.667 -14.333 63.667 -43 81s-73.667 26 -135 26h-10v57h453v-57
c-41.333 -1.33301 -77.166 -15.333 -107.499 -42s-67.833 -81.667 -112.5 -165l-370 -707v-237zM853.999 1843c26.667 0 49.667 -9.83301 69 -29.5s29 -42.834 29 -69.501c0 -28.667 -9.16699 -52.5 -27.5 -71.5s-41.833 -28.5 -70.5 -28.5s-52.5 9.5 -71.5 28.5
s-28.5 42.833 -28.5 71.5c0 26.667 10 49.834 30 69.501s43.333 29.5 70 29.5zM501.999 1843c26.667 0 50 -9.83301 70 -29.5s30 -42.834 30 -69.501c0 -28.667 -9.5 -52.5 -28.5 -71.5s-42.833 -28.5 -71.5 -28.5s-52.167 9.5 -70.5 28.5s-27.5 42.833 -27.5 71.5
c0 26.667 9.66699 49.834 29 69.501s42.333 29.5 69 29.5z" />
    <glyph glyph-name="Zcaron" unicode="&#x17d;" horiz-adv-x="1327" 
d="M96 0l-0.00195312 78l875 1311h-348c-112.667 0 -201.167 -25 -265.5 -75s-109.166 -129 -134.499 -237h-71l71 369h955v-76l-873 -1309h420c136.667 0 238.334 27.333 305.001 82s120.667 153.667 162 297h70l-84 -440h-1082zM372.998 1937h58l233 -211l233 211h58
l-232 -348h-118z" />
    <glyph glyph-name="zcaron" unicode="&#x17e;" horiz-adv-x="995" 
d="M68 0l0.00195312 59l628 809h-213c-70 0 -127.333 -15.333 -172 -46s-88.334 -85.667 -131.001 -165l-55 9l98 258h654v-62l-621 -805h154c91.333 0 158.166 6.5 200.499 19.5s79.833 34.5 112.5 64.5c27.333 26.667 53.5 58 78.5 94s49.167 77.667 72.5 125l54 -10
l-90 -350h-770zM207.002 1407h58l233 -211l233 211h58l-232 -348h-118z" />
    <glyph glyph-name="florin" unicode="&#x192;" horiz-adv-x="1251" 
d="M518 827h-217v76h225c20 200 63.167 346.333 129.5 439s161.166 139 284.499 139c61.333 0 110.833 -11 148.5 -33s56.5 -50.667 56.5 -86c0 -24 -7.83301 -43.667 -23.5 -59s-35.834 -23 -60.501 -23c-12.667 0 -25.334 2.16699 -38.001 6.5s-23.667 10.166 -33 17.499
c-5.33301 4.66699 -13 10.667 -23 18c-57.333 47.333 -100.333 71 -129 71c-70.667 0 -113 -137 -127 -411c-2 -34.667 -3.33301 -61 -4 -79h233v-76h-235l-9 -114c-31.333 -421.333 -68.666 -684.333 -111.999 -789c-33.333 -80 -82 -142 -146 -186s-137 -66 -219 -66
c-62.667 0 -112.5 10.667 -149.5 32s-55.5 49.666 -55.5 84.999c0 24.667 8.5 44.834 25.5 60.501s39.167 23.5 66.5 23.5c14 0 27.833 -2 41.5 -6s25.834 -9.66699 36.501 -17c10.667 -6.66699 25.334 -18.334 44.001 -35.001c40 -36.667 74 -55 102 -55
c29.333 0 54.833 13.333 76.5 40s36.5 63.334 44.5 110.001c12 76.667 25.667 246.334 41 509.001c10 170.667 18.667 306.667 26 408z" />
    <glyph glyph-name="circumflex" unicode="&#x2c6;" 
d="M453 1407h118l232 -348h-58l-233 211l-233 -211h-58z" />
    <glyph glyph-name="caron" unicode="&#x2c7;" 
d="M221 1407h58l233 -211l233 211h58l-232 -348h-118z" />
    <glyph glyph-name="breve" unicode="&#x2d8;" 
d="M219 1368h51.002c11.333 -49.333 36.166 -85.166 74.499 -107.499s94.166 -33.5 167.499 -33.5c72.667 0 128 11.167 166 33.5s62.667 58.166 74 107.499h51c-13.333 -88.667 -44.666 -155.834 -93.999 -201.501s-115 -68.5 -197 -68.5
c-82.667 0 -148.834 22.833 -198.501 68.5s-81.167 112.834 -94.5 201.501z" />
    <glyph glyph-name="dotaccent" unicode="&#x2d9;" 
d="M512 1319c28.667 0 53.167 -10.333 73.5 -31s30.5 -45.334 30.5 -74.001s-10 -53.5 -30 -74.5s-44.667 -31.5 -74 -31.5c-28.667 0 -53.167 10.333 -73.5 31s-30.5 45.667 -30.5 75c0 28.667 10.333 53.334 31 74.001s45 31 73 31z" />
    <glyph glyph-name="ring" unicode="&#x2da;" 
d="M512 1430c-41.333 0 -76.168 -14.5 -104.501 -43.5s-42.5 -64.5 -42.5 -106.5c0 -41.333 14.333 -76.666 43 -105.999s63.334 -44 104.001 -44c42 0 77.833 14.667 107.5 44s44.5 64.666 44.5 105.999c0 42 -14.833 77.5 -44.5 106.5s-65.5 43.5 -107.5 43.5z
M511.998 1522c67.333 0 124.5 -23.5 171.5 -70.5s70.5 -104.167 70.5 -171.5s-23.333 -124.166 -70 -170.499s-104 -69.5 -172 -69.5c-67.333 0 -124.166 23.167 -170.499 69.5s-69.5 103.166 -69.5 170.499c0 68 23.167 125.333 69.5 172s103.166 70 170.499 70z" />
    <glyph glyph-name="ogonek" unicode="&#x2db;" 
d="M575 31l49.999 0.000976562c-61.333 -48 -107.166 -94 -137.499 -138s-45.5 -87 -45.5 -129c0 -35.333 9.5 -63.833 28.5 -85.5s43.833 -32.5 74.5 -32.5c26 0 49 6.16699 69 18.5s36.667 30.5 50 54.5l28 -18c-24 -48 -54.167 -85 -90.5 -111s-76.5 -39 -120.5 -39
c-46 0 -84 13.667 -114 41s-45 61.666 -45 102.999c0 58 20.833 114.5 62.5 169.5s105.167 110.5 190.5 166.5z" />
    <glyph glyph-name="tilde" unicode="&#x2dc;" 
d="M745 1356h54c-13.333 -69.333 -36.166 -120.833 -68.499 -154.5s-74.5 -50.5 -126.5 -50.5c-10 0 -21 0.833008 -33 2.5s-25.333 4.16699 -40 7.5l-109 29c-8.66699 2 -17.834 3.5 -27.501 4.5s-19.5 1.5 -29.5 1.5c-22 0 -39.833 -7 -53.5 -21s-25.5 -37 -35.5 -69h-51
c12.667 70.667 35.334 123.5 68.001 158.5s75.667 52.5 129 52.5c12.667 0 24 -0.666992 34 -2s19.667 -3.33301 29 -6l111 -29c12 -3.33301 22.667 -5.83301 32 -7.5s17 -2.5 23 -2.5c24.667 0 44.167 6.5 58.5 19.5s26.166 35.167 35.499 66.5z" />
    <glyph glyph-name="hungarumlaut" unicode="&#x2dd;" 
d="M858 1274l-237.001 -214.999h-60l180 287c16 24.667 32.167 42.667 48.5 54s34.5 17 54.5 17c16 0 29.833 -5.83301 41.5 -17.5s17.5 -25.5 17.5 -41.5c0 -14.667 -3.66699 -28.834 -11 -42.501s-18.666 -27.5 -33.999 -41.5zM581.999 1276l-205 -217h-58l144 278
c16 29.333 31.167 50.333 45.5 63s29.833 19 46.5 19c18.667 0 34.667 -6.66699 48 -20s20 -29 20 -47c0 -10.667 -3.5 -22.5 -10.5 -35.5s-17.167 -26.5 -30.5 -40.5z" />
    <glyph glyph-name="Omega" unicode="&#x3a9;" horiz-adv-x="1567" 
d="M1100 188l0.00195312 -25.999h313l66 203h61l-108 -365h-500c89.333 155.333 156.666 305.666 201.999 450.999s68 283 68 413c0 180.667 -35.833 319.334 -107.5 416.001s-174.5 145 -308.5 145s-237 -48.333 -309 -145s-108 -235.334 -108 -416.001
c0 -130 22.667 -267 68 -411s113.333 -295 204 -453h-500l-110 365h61l68 -203h311v26c-110 135.333 -188 255.833 -234 361.5s-69 214.834 -69 327.501c0 181.333 58.167 330 174.5 446s264.166 174 443.499 174s327 -58.167 443 -174.5s174 -264.833 174 -445.5
c0 -112.667 -23 -221.834 -69 -327.501s-124 -226.167 -234 -361.5z" />
    <glyph glyph-name="pi" unicode="&#x3c0;" horiz-adv-x="1354" 
d="M1329 885l-35.002 -162h-329c-22.667 -119.333 -40.667 -270 -54 -452c-15.333 -209.333 -55.333 -314 -120 -314c-25.333 0 -44.666 8.16699 -57.999 24.5s-20 39.5 -20 69.5c0 38.667 25.667 132.167 77 280.5s90.333 278.833 117 391.5h-375
c-22 -118 -39.667 -267.333 -53 -448c-16.667 -212 -57.667 -318 -123 -318c-24.667 0 -43.667 8.33301 -57 25s-20 40.334 -20 71.001c0 37.333 25.833 129.666 77.5 276.999s91.167 278.333 118.5 393h-133c-90.667 0 -150.667 -14.5 -180 -43.5
s-53.333 -86.167 -72 -171.5h-59c24.667 138 63.834 235.333 117.501 292s133.167 85 238.5 85h942z" />
    <glyph glyph-name="endash" unicode="&#x2013;" 
d="M0 428v121h1024v-121h-1024z" />
    <glyph glyph-name="emdash" unicode="&#x2014;" horiz-adv-x="2048" 
d="M0 428v121h2048v-121h-2048z" />
    <glyph glyph-name="quoteleft" unicode="&#x2018;" horiz-adv-x="627" 
d="M403 1479l29 -30.999c-56.667 -50.667 -98.5 -95.167 -125.5 -133.5s-40.5 -72.5 -40.5 -102.5c0 -12 2.33301 -22.333 7 -31s12 -16 22 -22c4 -2.66699 10.667 -6.66699 20 -12c53.333 -31.333 80 -69 80 -113c0 -31.333 -11 -57.833 -33 -79.5s-48.333 -32.5 -79 -32.5
c-40.667 0 -73.5 14.333 -98.5 43s-37.5 66.667 -37.5 114c0 67.333 22.833 136.666 68.5 207.999s108.167 135.333 187.5 192z" />
    <glyph glyph-name="quoteright" unicode="&#x2019;" horiz-adv-x="627" 
d="M178 922l-28 29.999c55.333 50 96.666 94.5 123.999 133.5s41 73.167 41 102.5c0 12.667 -2.16699 23.167 -6.5 31.5s-11.5 15.5 -21.5 21.5l-20 12c-54 31.333 -81 69 -81 113c0 31.333 10.833 58 32.5 80s47.834 33 78.501 33c40.667 0 73.667 -14.5 99 -43.5
s38 -67.167 38 -114.5c0 -67.333 -22.667 -136.666 -68 -207.999s-108 -135 -188 -191z" />
    <glyph glyph-name="quotesinglbase" unicode="&#x201a;" horiz-adv-x="627" 
d="M178 -336l-28.002 30.998c54.667 48.667 95.834 93 123.501 133s41.5 74.667 41.5 104c0 12.667 -2.16699 22.834 -6.5 30.501s-11.5 14.834 -21.5 21.501l-20 11c-54 32 -81 70 -81 114c0 31.333 10.833 57.833 32.5 79.5s47.834 32.5 78.501 32.5
c40.667 0 73.667 -14.5 99 -43.5s38 -67.167 38 -114.5c0 -66.667 -22.667 -135.667 -68 -207s-108 -135.333 -188 -192z" />
    <glyph glyph-name="quotedblleft" unicode="&#x201c;" horiz-adv-x="999" 
d="M778 1479l29 -30.999c-58 -51.333 -100.5 -96 -127.5 -134s-40.5 -72 -40.5 -102c0 -12 2.33301 -22.333 7 -31s12 -16 22 -22l21 -12c54 -32 81 -69.667 81 -113c0 -31.333 -11 -57.833 -33 -79.5s-48.667 -32.5 -80 -32.5c-40 0 -72.5 14.333 -97.5 43
s-37.5 66.667 -37.5 114c0 67.333 22.833 136.666 68.5 207.999s108.167 135.333 187.5 192zM403 1479l29 -30.999c-56.667 -50.667 -98.5 -95.167 -125.5 -133.5s-40.5 -72.5 -40.5 -102.5c0 -12 2.33301 -22.333 7 -31s12 -16 22 -22c4 -2.66699 10.667 -6.66699 20 -12
c53.333 -31.333 80 -69 80 -113c0 -31.333 -11 -57.833 -33 -79.5s-48.333 -32.5 -79 -32.5c-40.667 0 -73.5 14.333 -98.5 43s-37.5 66.667 -37.5 114c0 67.333 22.833 136.666 68.5 207.999s108.167 135.333 187.5 192z" />
    <glyph glyph-name="quotedblright" unicode="&#x201d;" horiz-adv-x="999" 
d="M553 922l-28.999 30c56 50 97.667 94.5 125 133.5s41 73.167 41 102.5c0 12.667 -2.33301 23.167 -7 31.5s-11.667 15.5 -21 21.5l-20 12c-54 31.333 -81 69 -81 113c0 31.333 10.667 58 32 80s47.666 33 78.999 33c40 0 72.5 -14.5 97.5 -43.5s37.5 -67.167 37.5 -114.5
c0 -68 -22.5 -137.5 -67.5 -208.5s-107.167 -134.5 -186.5 -190.5zM178.001 922l-28 29.999c55.333 50 96.666 94.5 123.999 133.5s41 73.167 41 102.5c0 12.667 -2.16699 23.167 -6.5 31.5s-11.5 15.5 -21.5 21.5l-20 12c-54 31.333 -81 69 -81 113
c0 31.333 10.833 58 32.5 80s47.834 33 78.501 33c40.667 0 73.667 -14.5 99 -43.5s38 -67.167 38 -114.5c0 -67.333 -22.667 -136.666 -68 -207.999s-108 -135 -188 -191z" />
    <glyph glyph-name="quotedblbase" unicode="&#x201e;" horiz-adv-x="999" 
d="M553 -336l-28.999 30.9971c55.333 48.667 96.833 93 124.5 133s41.5 74.667 41.5 104c0 12.667 -2.16699 22.834 -6.5 30.501s-11.5 14.834 -21.5 21.501l-20 11c-54 32 -81 70 -81 114c0 31.333 10.667 57.833 32 79.5s47.666 32.5 78.999 32.5
c40 0 72.5 -14.333 97.5 -43s37.5 -67 37.5 -115c0 -67.333 -22.5 -136.666 -67.5 -207.999s-107.167 -135 -186.5 -191zM178.001 -336.003l-28.002 30.998c54.667 48.667 95.834 93 123.501 133s41.5 74.667 41.5 104c0 12.667 -2.16699 22.834 -6.5 30.501
s-11.5 14.834 -21.5 21.501l-20 11c-54 32 -81 70 -81 114c0 31.333 10.833 57.833 32.5 79.5s47.834 32.5 78.501 32.5c40.667 0 73.667 -14.5 99 -43.5s38 -67.167 38 -114.5c0 -66.667 -22.667 -135.667 -68 -207s-108 -135.333 -188 -192z" />
    <glyph glyph-name="dagger" unicode="&#x2020;" 
d="M397 610c30 50 52.498 101.666 67.498 154.999s22.5 108.333 22.5 165c0 4.66699 -0.333008 12.167 -1 22.5s-1 17.833 -1 22.5c-48.667 -2 -103 -14.833 -163 -38.5s-99 -35.5 -117 -35.5c-32 0 -57.833 8.16699 -77.5 24.5s-29.5 38.166 -29.5 65.499
c0 32 9.5 57.167 28.5 75.5s45.167 27.5 78.5 27.5c15.333 0 52.5 -11.667 111.5 -35s111.833 -35 158.5 -35h10c0.666992 5.33301 1.16699 11.5 1.5 18.5s0.5 16.5 0.5 28.5c0 65.333 -12.5 130.333 -37.5 195s-37.5 101.334 -37.5 110.001c0 30 9.5 54.667 28.5 74
s43.5 29 73.5 29c28 0 51 -9.66699 69 -29s27 -44 27 -74c0 -17.333 -7.83301 -43.166 -23.5 -77.499s-26.167 -58.833 -31.5 -73.5c-6 -17.333 -10.5 -39.5 -13.5 -66.5s-4.5 -59.5 -4.5 -97.5v-35h22c42.667 0 92.667 11.333 150 34s94 34 110 34c32 0 57.833 -9 77.5 -27
s29.5 -41.333 29.5 -70c0 -30 -9.5 -53.5 -28.5 -70.5s-45.167 -25.5 -78.5 -25.5c-16.667 0 -55.167 12.667 -115.5 38s-116.5 38 -168.5 38c0 -79.333 7.5 -149 22.5 -209s38.167 -112.667 69.5 -158c-28 -109.333 -48.833 -233.833 -62.5 -373.5
s-21.167 -303.834 -22.5 -492.501h-56c-1.33301 178.667 -9.16602 338.334 -23.499 479.001s-36.166 269.667 -65.499 387z" />
    <glyph glyph-name="daggerdbl" unicode="&#x2021;" 
d="M397 610c30 50 52.5039 101.663 67.5039 154.996s22.5 108.333 22.5 165c0 4.66699 -0.333008 12.167 -1 22.5s-1 17.833 -1 22.5c-48.667 -2 -103 -14.833 -163 -38.5s-99 -35.5 -117 -35.5c-32 0 -57.833 8.16699 -77.5 24.5s-29.5 38.166 -29.5 65.499
c0 32 9.5 57.167 28.5 75.5s45.167 27.5 78.5 27.5c15.333 0 52.5 -11.667 111.5 -35s111.833 -35 158.5 -35h10c0.666992 5.33301 1.16699 11.5 1.5 18.5s0.5 16.5 0.5 28.5c0 65.333 -12.5 130.333 -37.5 195s-37.5 101.334 -37.5 110.001c0 30 9.5 54.667 28.5 74
s43.5 29 73.5 29c28 0 51 -9.66699 69 -29s27 -44 27 -74c0 -17.333 -7.83301 -43.166 -23.5 -77.499s-26.167 -58.833 -31.5 -73.5c-6 -17.333 -10.5 -39.5 -13.5 -66.5s-4.5 -59.5 -4.5 -97.5v-35h22c42.667 0 92.667 11.333 150 34s94 34 110 34c32 0 57.833 -9 77.5 -27
s29.5 -41.333 29.5 -70c0 -30 -9.5 -53.5 -28.5 -70.5s-45.167 -25.5 -78.5 -25.5c-16.667 0 -55.167 12.667 -115.5 38s-116.5 38 -168.5 38c0 -81.333 7.33301 -151.833 22 -211.5s38 -112.167 70 -157.5c-30.667 -50.667 -53.334 -102.667 -68.001 -156
s-22 -109 -22 -167v-43c45.333 1.33301 99.166 13.833 161.499 37.5s105.166 35.5 128.499 35.5c30 0 54 -8.66699 72 -26s27 -40.666 27 -69.999c0 -26.667 -9.83301 -49 -29.5 -67s-44.167 -27 -73.5 -27c-18 0 -56.833 11.667 -116.5 35s-112.167 35 -157.5 35h-10
c-0.666992 -5.33301 -1.16699 -11.5 -1.5 -18.5s-0.5 -16.833 -0.5 -29.5c0 -65.333 12.5 -130.666 37.5 -195.999s37.5 -102.333 37.5 -111c0 -30 -9.5 -54.5 -28.5 -73.5s-43.5 -28.5 -73.5 -28.5c-28 0 -51 9.66699 -69 29s-27 43.666 -27 72.999c0 20 10 51.667 30 95
c11.333 24.667 19.666 44.334 24.999 59.001c6 18 10.5 43.5 13.5 76.5s4.5 73.833 4.5 122.5h-22c-41.333 0 -91 -11.333 -149 -34s-96.333 -34 -115 -34c-30.667 0 -55.5 9 -74.5 27s-28.5 41.667 -28.5 71c0 28.667 9.66699 51.5 29 68.5s45.333 25.5 78 25.5
c16.667 0 55.167 -12.5 115.5 -37.5s116.5 -37.5 168.5 -37.5c-0.666992 82.667 -8.5 153.834 -23.5 213.501s-37.833 111.167 -68.5 154.5z" />
    <glyph glyph-name="bullet" unicode="&#x2022;" horiz-adv-x="1208" 
d="M307 762c0 82 28.999 151.666 86.999 208.999s128 86 210 86c81.333 0 150.833 -28.833 208.5 -86.5s86.5 -127.167 86.5 -208.5s-29.167 -151.166 -87.5 -209.499s-128.166 -87.5 -209.499 -87.5c-82 0 -151.667 29 -209 87s-86 128 -86 210z" />
    <glyph glyph-name="ellipsis" unicode="&#x2026;" horiz-adv-x="2048" 
d="M215 100c0 34.667 12.667 64.5 38 89.5s55 37.5 89 37.5c35.333 0 65 -12.167 89 -36.5s36 -54.5 36 -90.5c0 -34.667 -11.833 -64.167 -35.5 -88.5s-53.5 -36.5 -89.5 -36.5c-35.333 0 -65.333 12.167 -90 36.5s-37 53.833 -37 88.5zM897 100
c0 34.667 12.667 64.5 38 89.5s55 37.5 89 37.5c35.333 0 65 -12.167 89 -36.5s36 -54.5 36 -90.5c0 -34.667 -11.833 -64.167 -35.5 -88.5s-53.5 -36.5 -89.5 -36.5c-35.333 0 -65.333 12.167 -90 36.5s-37 53.833 -37 88.5zM1581 100c0 34.667 12.667 64.5 38 89.5
s55 37.5 89 37.5c35.333 0 65 -12.167 89 -36.5s36 -54.5 36 -90.5c0 -34.667 -11.833 -64.167 -35.5 -88.5s-53.5 -36.5 -89.5 -36.5c-35.333 0 -65.333 12.167 -90 36.5s-37 53.833 -37 88.5z" />
    <glyph glyph-name="perthousand" unicode="&#x2030;" horiz-adv-x="2521" 
d="M2398 543c0 57.333 -13.667 102.668 -41 136.001s-64 50 -110 50c-33.333 0 -66.5 -12 -99.5 -36s-66.167 -60.333 -99.5 -109c-41.333 -61.333 -74.5 -127.833 -99.5 -199.5s-37.5 -132.834 -37.5 -183.501c0 -48 12.833 -86 38.5 -114s60.5 -42 104.5 -42
c40.667 0 80.834 13.333 120.5 40c39.667 26.667 76.167 64.667 109.5 114c36 54 64 111.5 84 172.5s30 118.167 30 171.5zM2222 797.002c74 0 132.5 -22.666 175.5 -67.999s64.5 -106.666 64.5 -183.999c0 -60.667 -10.167 -121.834 -30.5 -183.501
s-50.5 -122.834 -90.5 -183.501c-46 -68.667 -96.667 -121 -152 -157s-112.666 -54 -172 -54c-78 0 -142.5 27.5 -193.5 82.5s-76.5 125.167 -76.5 210.5c0 61.333 13 123.833 39 187.5s62.667 123.5 110 179.5c46 53.333 97.667 95 155 125s114.333 45 171 45zM706 1313
c-24 4.66699 -47.8359 13.166 -71.5029 25.499s-47.167 28.833 -70.5 49.5c-34 -2 -66.833 -15.167 -98.5 -39.5s-63.167 -60.166 -94.5 -107.499c-41.333 -61.333 -74.666 -127.5 -99.999 -198.5s-38 -131.833 -38 -182.5c0 -47.333 13.167 -85 39.5 -113
s61.833 -42 106.5 -42c38.667 0 77.5 13.333 116.5 40s77.167 66.334 114.5 119.001c36.667 51.333 64.334 105.666 83.001 162.999s28 115.666 28 174.999c0 26 -1.16699 47.333 -3.5 64s-6.16602 32.334 -11.499 47.001zM378.997 -32.998l773.998 1381
c-41.333 -25.333 -81.666 -44 -120.999 -56s-79 -18 -119 -18c-25.333 0 -49.833 1.5 -73.5 4.5s-47.5 7.5 -71.5 13.5c4 -18.667 7 -36.667 9 -54s3 -34.666 3 -51.999c0 -58 -9.66699 -116 -29 -174s-48.333 -116 -87 -174c-46 -68.667 -96.5 -120.667 -151.5 -156
s-112.5 -53 -172.5 -53c-78.667 0 -143.334 27.167 -194.001 81.5s-76 124.166 -76 209.499c0 60 13.167 122 39.5 186s63.5 124 111.5 180c46 54 97.333 95.833 154 125.5s113.334 44.5 170.001 44.5c36 0 67.667 -5.33301 95 -16s52.333 -27 75 -49
c19.333 -22 44.333 -38.167 75 -48.5s68.334 -15.5 113.001 -15.5c64 0 125.167 13.333 183.5 40s107.833 64 148.5 112h92l-846 -1512h-102zM1569 543.002c0 57.333 -13.668 102.668 -41.001 136.001s-64.333 50 -111 50c-33.333 0 -66.5 -12 -99.5 -36
s-65.833 -60.333 -98.5 -109c-41.333 -61.333 -74.666 -127.833 -99.999 -199.5s-38 -132.834 -38 -183.501c0 -48 12.833 -86 38.5 -114s60.834 -42 105.501 -42c40.667 0 80.667 13.333 120 40s75.666 64.667 108.999 114c36 54 64.167 111.5 84.5 172.5
s30.5 118.167 30.5 171.5zM1392.99 797.004c73.333 0 131.167 -22.5 173.5 -67.5s63.5 -106.5 63.5 -184.5c0 -60.667 -10.167 -121.834 -30.5 -183.501s-50.5 -122.834 -90.5 -183.501c-46 -68.667 -96.5 -121 -151.5 -157s-112.167 -54 -171.5 -54
c-78.667 0 -143.5 27.5 -194.5 82.5s-76.5 125.167 -76.5 210.5c0 60.667 13.167 122.834 39.5 186.501s63.833 123.834 112.5 180.501c46 53.333 97.5 95 154.5 125s114.167 45 171.5 45z" />
    <glyph glyph-name="guilsinglleft" unicode="&#x2039;" horiz-adv-x="498" 
d="M66 475c70.667 60.667 142.667 127.334 216 200.001s114.666 109 123.999 109c4.66699 0 8.16699 -1.33301 10.5 -4s3.5 -6.66699 3.5 -12c0 -14.667 -15.667 -49.334 -47 -104.001s-72.333 -117.667 -123 -189c50 -70.667 90.833 -133.5 122.5 -188.5
s47.5 -89.167 47.5 -102.5c-0.666992 -5.33301 -2.16699 -9.33301 -4.5 -12s-5.5 -4 -9.5 -4c-8.66699 0 -49.667 36.167 -123 108.5s-145.666 138.5 -216.999 198.5z" />
    <glyph glyph-name="guilsinglright" unicode="&#x203a;" horiz-adv-x="498" 
d="M432 475c-71.333 -60 -143.666 -126.165 -216.999 -198.498s-114.333 -108.5 -123 -108.5c-4.66699 0 -8.16699 1.33301 -10.5 4s-3.5 6.66699 -3.5 12c0 13.333 16 47.166 48 101.499s73.333 117.5 124 189.5c-51.333 72.667 -92.833 136.167 -124.5 190.5
s-47.5 88.5 -47.5 102.5c0 5.33301 1.16699 9.33301 3.5 12s5.83301 4 10.5 4c8.66699 0 49.667 -36.333 123 -109s145.666 -139.334 216.999 -200.001z" />
    <glyph glyph-name="franc" unicode="&#x20a3;" horiz-adv-x="2243" 
d="M549 799l6.99707 -1c38.667 -2 66.334 -3 83.001 -3c104 0 178.167 18.833 222.5 56.5s66.5 100.5 66.5 188.5v13h65v-576h-65c-1.33301 98 -23.166 166.167 -65.499 204.5s-118.166 57.5 -227.499 57.5c-22.667 0 -40.167 -0.166992 -52.5 -0.5
s-23.5 -0.833008 -33.5 -1.5v-499c0 -79.333 12 -129.333 36 -150s78.333 -31 163 -31h63v-57h-723v57h64c84 0 138 10.333 162 31s36 70.667 36 150v970c0 79.333 -12 129.333 -36 150s-78 31 -162 31h-64v57h1204l39 -371h-71c-28.667 114 -71.667 193.333 -129 238
s-147 67 -269 67h-141c-69.333 0 -115.333 -10.833 -138 -32.5s-34 -68.167 -34 -139.5v-409zM1819 766c57.333 60.667 109.336 105.167 156.003 133.5s91 42.5 133 42.5c35.333 0 64.166 -9.16699 86.499 -27.5s33.5 -41.833 33.5 -70.5c0 -26.667 -10.5 -50.5 -31.5 -71.5
s-45.167 -31.5 -72.5 -31.5c-20.667 0 -49.167 9.66699 -85.5 29s-63.833 29 -82.5 29c-22 0 -44.333 -7 -67 -21s-46 -35 -70 -63v-543c0 -48 6.33301 -79.167 19 -93.5s41 -21.5 85 -21.5h72v-57h-518v57h53c51.333 0 85.333 7.83301 102 23.5s25 46.167 25 91.5v518
c0 70 -8.66699 114.167 -26 132.5s-55 27.5 -113 27.5h-31v55c53.333 2 107.666 6 162.999 12s111.666 13.667 168.999 23v-174z" />
    <glyph glyph-name="trademark" unicode="&#x2122;" horiz-adv-x="1683" 
d="M788 1438l183 0.00390625l141 -400l148 400h174v-25l-30 -2c-14.667 -1.33301 -26 -6.5 -34 -15.5s-12 -21.5 -12 -37.5v-373c0 -16 4 -28.5 12 -37.5s19.333 -14.167 34 -15.5l30 -2v-27h-236v27l31 2c14 1.33301 25 6.66602 33 15.999s12 21.666 12 36.999v395
l-178 -479h-15l-174 479v-395c0 -15.333 4.16699 -27.666 12.5 -36.999s19.833 -14.666 34.5 -15.999l31 -2v-27h-197v27l34 2c14 1.33301 24.833 6.66602 32.5 15.999s11.5 21.666 11.5 36.999v371c0 15.333 -4.16699 27.666 -12.5 36.999s-19.833 14.666 -34.5 15.999
l-31 2v27zM256 1438l440.001 -0.00292969l11 -178h-25c-5.33301 52.667 -18.833 91 -40.5 115s-53.834 36 -96.501 36h-21v-426c0 -15.333 4 -27.666 12 -36.999s19 -14.666 33 -15.999l31 -2v-27h-248v27l31 2c14 0.666992 25 5.83398 33 15.501s12 22.167 12 37.5v426h-20
c-42.667 0 -75 -12 -97 -36s-35.667 -62.333 -41 -115h-26z" />
    <glyph glyph-name="partialdiff" unicode="&#x2202;" horiz-adv-x="1044" 
d="M754 604c8.66699 54 15.1699 107.833 19.5029 161.5s6.5 106.5 6.5 158.5c0 93.333 -13.167 165.5 -39.5 216.5s-63.5 76.5 -111.5 76.5c-35.333 0 -74.333 -21.167 -117 -63.5s-79 -63.5 -109 -63.5c-19.333 0 -36.333 7.16699 -51 21.5s-22 31.5 -22 51.5
c0 39.333 22.667 74.5 68 105.5s99.666 46.5 162.999 46.5c114 0 205 -50.833 273 -152.5s102 -239.167 102 -412.5c0 -223.333 -46.333 -408.333 -139 -555s-207.334 -220 -344.001 -220c-98 0 -178.5 35.5 -241.5 106.5s-94.5 161.833 -94.5 272.5
c0 126 36.167 231.333 108.5 316s161.166 127 266.499 127c66 0 120.167 -15.667 162.5 -47s75.5 -80 99.5 -146zM709.003 483c0 78 -15 138.168 -45 180.501s-72.333 63.5 -127 63.5c-75.333 0 -136.833 -42.5 -184.5 -127.5s-71.5 -196.167 -71.5 -333.5
c0 -78 14.667 -137.333 44 -178s72 -61 128 -61c74 0 135.167 42.667 183.5 128s72.5 194.666 72.5 327.999z" />
    <glyph glyph-name="Delta" unicode="&#x2206;" horiz-adv-x="1208" 
d="M555 1212l-389 -1042h768zM596 1497h29l555 -1497h-1151z" />
    <glyph glyph-name="product" unicode="&#x220f;" horiz-adv-x="1595" 
d="M57 1473h1479v-70h-186v-1727h186v-69h-555v69h197v1727h-762v-1727h196v-69h-555v69h187v1727h-187v70z" />
    <glyph glyph-name="summation" unicode="&#x2211;" horiz-adv-x="1434" 
d="M12 1473h1135l98 -340h-74l-67 219c-5.33301 18 -16 31 -32 39s-40.333 12 -73 12h-741l864 -850v-37l-858 -756h893c40 0 65.833 4.33301 77.5 13s21.5 25.667 29.5 51l71 229h74l-135 -446h-1260v28l959 838l-961 950v50z" />
    <glyph glyph-name="minus" unicode="&#x2212;" horiz-adv-x="1706" 
d="M254 670h1198v-119h-1198v119z" />
    <glyph glyph-name="fraction" unicode="&#x2215;" horiz-adv-x="342" 
d="M-342 -33l920 1512h104l-920 -1512h-104z" />
    <glyph glyph-name="periodcentered" unicode="&#x2219;" horiz-adv-x="627" 
d="M186 723c0 34.667 12.667 64.5 38 89.5s55 37.5 89 37.5c35.333 0 65 -12.333 89 -37s36 -54.667 36 -90s-11.833 -65 -35.5 -89s-53.5 -36 -89.5 -36c-35.333 0 -65.333 12.167 -90 36.5s-37 53.833 -37 88.5z" />
    <glyph glyph-name="radical" unicode="&#x221a;" horiz-adv-x="1288" 
d="M1106 1647h182v-82h-119l-594 -1606h-53l-323 893l-119 -43l-23 68l262 92l265 -729z" />
    <glyph glyph-name="infinity" unicode="&#x221e;" horiz-adv-x="1706" 
d="M905 559c34 -63.333 73.6689 -110.5 119.002 -141.5s97.333 -46.5 156 -46.5c68 0 124.167 23.667 168.5 71s66.5 107.666 66.5 180.999c0 72 -20.333 131.833 -61 179.5s-91.334 71.5 -152.001 71.5c-56.667 0 -107.834 -24.167 -153.501 -72.5
s-93.5 -129.166 -143.5 -242.499zM803.002 666c-34 63.333 -73.6699 110.833 -119.003 142.5s-96.666 47.5 -153.999 47.5c-70 0 -127 -23.667 -171 -71s-66 -108.333 -66 -183c0 -72 20.333 -131.667 61 -179s91.334 -71 152.001 -71c56.667 0 107.334 23 152.001 69
s93 127.667 145 245zM865.999 494c-47.333 -92 -96.667 -159.169 -148 -201.502s-109 -63.5 -173 -63.5c-89.333 0 -164.666 36.333 -225.999 109s-92 163.334 -92 272.001c0 114.667 27.5 207.167 82.5 277.5s126.5 105.5 214.5 105.5c64.667 0 122 -21 172 -63
s98 -109.667 144 -203c44.667 92 93.334 160 146.001 204s111 66 175 66c89.333 0 164.666 -36.167 225.999 -108.5s92 -163.166 92 -272.499c0 -114 -27.333 -206.333 -82 -277s-125.667 -106 -213 -106c-64 0 -120.333 20 -169 60s-98.334 107 -149.001 201z" />
    <glyph glyph-name="integral" unicode="&#x222b;" horiz-adv-x="1020" 
d="M301 -268c68.667 0 107.33 221.335 115.997 664.002c2 94 3.66699 166 5 216c8 335.333 42 575.166 102 719.499s153.667 216.5 281 216.5c50.667 0 91.334 -13 122.001 -39s46 -60.667 46 -104c0 -32 -10.333 -57.833 -31 -77.5s-48 -29.5 -82 -29.5
c-35.333 0 -63.666 11.667 -84.999 35s-32 54 -32 92c0 5.33301 -2 10.5 -6 15.5s-8.66699 7.5 -14 7.5c-70 0 -109.667 -211.333 -119 -634c-2 -104.667 -4 -186.334 -6 -245.001c-6.66699 -205.333 -17.167 -359 -31.5 -461s-35.166 -184.333 -62.499 -247
c-32.667 -76 -73.667 -133.667 -123 -173s-105.333 -59 -168 -59c-48.667 0 -88.5 12.667 -119.5 38s-46.5 57.666 -46.5 96.999c0 35.333 10.5 63.333 31.5 84s48.833 31 83.5 31c31.333 0 57.833 -9.66699 79.5 -29s32.5 -41.666 32.5 -66.999c0 -16 2.5 -28.5 7.5 -37.5
s11.5 -13.5 19.5 -13.5z" />
    <glyph glyph-name="approxequal" unicode="&#x2248;" horiz-adv-x="1706" 
d="M1530 584l-0.00292969 -130.998c-71.333 -50 -138.666 -86.833 -201.999 -110.5s-125.666 -35.5 -186.999 -35.5c-65.333 0 -161.333 23.167 -288 69.5s-223.334 69.5 -290.001 69.5c-54.667 0 -111.167 -11.833 -169.5 -35.5s-130.166 -64.834 -215.499 -123.501v131
c72 49.333 139.833 86.166 203.5 110.499s124.834 36.5 183.501 36.5c74 0 174.5 -23.167 301.5 -69.5s219.167 -69.5 276.5 -69.5c56.667 0 114.5 11.833 173.5 35.5s130.167 64.5 213.5 122.5zM1530 934.002l0.000976562 -130.998
c-69.333 -48.667 -136 -84.834 -200 -108.501s-126.333 -35.5 -187 -35.5c-66.667 0 -163.334 23 -290.001 69s-223.334 69 -290.001 69c-55.333 0 -112.5 -12 -171.5 -36s-130.167 -64.667 -213.5 -122v131c70.667 48.667 138 85 202 109s125.667 36 185 36
c74 0 174.167 -22.833 300.5 -68.5s218.833 -68.5 277.5 -68.5c58 0 116.333 11.667 175 35s129.334 63.666 212.001 120.999z" />
    <glyph glyph-name="notequal" unicode="&#x2260;" horiz-adv-x="1706" 
d="M1210 1180l88 -70l-196 -250h350v-115h-424l-211 -270h635v-115h-709l-251 -319l-89 70l197 249h-346v115h420l211 270h-631v115h704z" />
    <glyph glyph-name="lessequal" unicode="&#x2264;" horiz-adv-x="1706" 
d="M262 150h1182v-117h-1182v117zM1444 1192v-125l-977 -324l977 -323v-125l-1182 399v101z" />
    <glyph glyph-name="greaterequal" unicode="&#x2265;" horiz-adv-x="1706" 
d="M262 150h1182v-117h-1182v117zM262 1192l1182 -397v-101l-1182 -399v125l979 323l-979 324v125z" />
    <glyph glyph-name="lozenge" unicode="&#x25ca;" horiz-adv-x="1012" 
d="M506 1409l-385 -817l385 -825l385 825zM506 1653l500 -1061l-500 -1069l-500 1069z" />
    <glyph glyph-name="apple" unicode="&#xf000;" horiz-adv-x="1618" 
d="M836 1216c-0.666992 4 -1.16699 8.66895 -1.5 14.002s-0.5 13 -0.5 23c0 82.667 31.667 159.167 95 229.5s142 114.166 236 131.499c0.666992 -6.66699 1.16699 -14.334 1.5 -23.001s0.5 -21.667 0.5 -39c0 -87.333 -34.5 -165.5 -103.5 -234.5
s-136.833 -103.5 -203.5 -103.5h-8c-2 0 -4.5 0.333008 -7.5 1s-5.83301 1 -8.5 1zM1505 403.002c-76 -164.667 -144.336 -278.834 -205.003 -342.501s-128.667 -95.5 -204 -95.5c-33.333 0 -77.166 11 -131.499 33s-95.166 33 -122.499 33c-30 0 -73.667 -11 -131 -33
s-99.666 -33 -126.999 -33c-42.667 0 -85.5 14.667 -128.5 44s-86.167 73.333 -129.5 132c-68 93.333 -120.5 191.833 -157.5 295.5s-55.5 203.834 -55.5 300.501c0 146 41.667 264.833 125 356.5s191 137.5 323 137.5c45.333 0 97 -11.333 155 -34s99.333 -34 124 -34
c22.667 0 63.167 11.667 121.5 35s109.166 35 152.499 35c73.333 0 139.333 -13.333 198 -40s112.334 -68 161.001 -124c-68 -43.333 -118.5 -91.833 -151.5 -145.5s-49.5 -114.5 -49.5 -182.5c0 -75.333 20 -142 60 -200s97.667 -104 173 -138z" />
    <glyph glyph-name="fi" unicode="&#xf001;" horiz-adv-x="1229" 
d="M414 172c0 -48 6.33203 -79.167 18.999 -93.5s41 -21.5 85 -21.5h49v-57h-495v57h53c51.333 0 85.333 7.83301 102 23.5s25 46.167 25 91.5v696h-172v56h172v49c0 84.667 11.167 157.5 33.5 218.5s57.5 115.833 105.5 164.5c44 44 93.333 77.833 148 101.5
s110.667 35.5 168 35.5c73.333 0 132.833 -12.167 178.5 -36.5s68.5 -55.166 68.5 -92.499c0 -22 -9.5 -41.167 -28.5 -57.5s-41.5 -24.5 -67.5 -24.5c-19.333 0 -38.333 4.16699 -57 12.5s-45 25.5 -79 51.5c-3.33301 2.66699 -8.33301 7 -15 13
c-42 34.667 -79.667 52 -113 52c-60 0 -105 -29.833 -135 -89.5s-45 -148.5 -45 -266.5v-131h602v-744c0 -52.667 6.83301 -86.334 20.5 -101.001s44.834 -22 93.501 -22h41v-57h-481v57h49c46 0 76.667 8 92 24s23 50.333 23 103v684h-440v-696z" />
    <glyph glyph-name="fl" unicode="&#xf002;" horiz-adv-x="1229" 
d="M414 924l440 -0.000976562v370c-33.333 2.66699 -76 22.834 -128 60.501s-94.667 56.5 -128 56.5c-61.333 0 -107.333 -29.667 -138 -89s-46 -148.333 -46 -267v-131zM414 171.999c0 -48 6.33105 -79.166 18.998 -93.499s41 -21.5 85 -21.5h49v-57h-495v57h53
c51.333 0 85.333 7.83301 102 23.5s25 46.167 25 91.5v696h-172v56h172v49c0 84.667 11.167 157.5 33.5 218.5s57.5 115.833 105.5 164.5c44 44 93.333 77.833 148 101.5s110.667 35.5 168 35.5c27.333 0 55.333 -2.33301 84 -7s57.334 -12 86.001 -22l139 29v-1313
c0 -52.667 6.83301 -86.334 20.5 -101.001s44.834 -22 93.501 -22h41v-57h-481v57h49c46 0 76.667 8 92 24s23 50.333 23 103v684h-440v-696z" />
    <glyph glyph-name=".null" horiz-adv-x="0" 
 />
    <glyph glyph-name="nonmarkingreturn" horiz-adv-x="627" 
 />
    </font>
</defs>
</svg>
