<?xml version="1.0" standalone="no"?>
<!DOCTYPE svg PUBLIC "-//W3C//DTD SVG 1.1//EN" "http://www.w3.org/Graphics/SVG/1.1/DTD/svg11.dtd" >
<svg>
<metadata>
Created by FontForge 20090914 at Tue Dec 25 09:31:05 2018
 By www-data
Copyright (c) BPG InfoTech, 2008. All rights reserved.
</metadata>
<defs>
<font id="BPGNinoMkhedruliBook" horiz-adv-x="798" >
  <font-face 
    font-family="BPG Nino Mkhedruli Book"
    font-weight="400"
    font-style="italic"
    font-stretch="normal"
    units-per-em="2048"
    panose-1="0 0 5 6 0 0 0 2 0 4"
    ascent="1638"
    descent="-410"
    x-height="1042"
    cap-height="1399"
    bbox="-96 -413 2311 1635"
    underline-thickness="49"
    underline-position="-52"
    slope="-25"
    unicode-range="U+0020-U+2122"
  />
<missing-glyph horiz-adv-x="1735" 
d="M338 137h1145v1270h-1145v-1270zM309 98v1348h1200v-1348h-1200z" />
    <glyph glyph-name=".notdef" horiz-adv-x="1735" 
d="M338 137h1145v1270h-1145v-1270zM309 98v1348h1200v-1348h-1200z" />
    <glyph glyph-name="space" unicode=" " horiz-adv-x="400" 
 />
    <glyph glyph-name="space" unicode="&#xa0;" horiz-adv-x="400" 
 />
    <glyph glyph-name="exclam" unicode="!" horiz-adv-x="440" 
d="M186 544v1011h105v-1011h-105zM217 150c-12 0 -23 2.5 -33 7.5s-18.833 11.5 -26.5 19.5s-13.667 17.333 -18 28s-6.5 22 -6.5 34c0 30 7.66699 54.5 23 73.5s37 28.5 65 28.5c25.333 0 46 -9 62 -27s24 -41 24 -69c0 -12.667 -2.16699 -24.667 -6.5 -36
s-10.333 -21.333 -18 -30s-17 -15.667 -28 -21s-22.833 -8 -35.5 -8h-2z" />
    <glyph glyph-name="quotedbl" unicode="&#x22;" horiz-adv-x="618" 
d="M246 1630l-29 -454h-65l-29 454h123zM496 1630l-29 -454h-66l-28 454h123z" />
    <glyph glyph-name="numbersign" unicode="#" horiz-adv-x="1719" 
d="M1284 1450c40 0 76.167 -8.49707 108.5 -25.4971s59.833 -41 82.5 -72s40 -68.333 52 -112s18 -91.834 18 -144.501c0 -65.333 -7.83301 -120.833 -23.5 -166.5s-36 -82.834 -61 -111.501s-53.167 -49.667 -84.5 -63s-62.333 -20 -93 -20c-38 0 -73 8 -105 24
s-59.667 39 -83 69s-41.5 66.667 -54.5 110s-19.5 92.666 -19.5 147.999c0 59.333 7.33301 111.666 22 156.999s34.334 83.333 59.001 114s52.667 53.834 84 69.501s63.666 23.5 96.999 23.5h1zM1281 1379c-31.333 0 -58.6699 -8.16699 -82.0029 -24.5
s-42.666 -38 -57.999 -65s-26.833 -58 -34.5 -93s-11.5 -71.167 -11.5 -108.5c0 -45.333 5.33301 -85.5 16 -120.5s24.834 -64.5 42.501 -88.5s37.834 -42.167 60.501 -54.5s45.667 -18.5 69 -18.5c26 0 50.333 6.33301 73 19s42.5 31 59.5 55s30.5 53.833 40.5 89.5
s15 76.5 15 122.5c0 33.333 -3.5 67 -10.5 101s-18 64.833 -33 92.5s-34.333 50.167 -58 67.5s-52.5 26 -86.5 26h-2zM1069 565.003v80h430v-80h-430zM173.996 151.003v1330h93l580 -1205v1205h64v-1330h-84l-584 1201v-1201h-69z" />
    <glyph glyph-name="dollar" unicode="$" horiz-adv-x="1085" 
d="M473 -68l-0.00292969 215.002c-28 0 -56.333 2.16699 -85 6.5s-56.667 10.5 -84 18.5s-53.166 18 -77.499 30s-45.833 25.667 -64.5 41l45 78c34.667 -28 76.667 -50.667 126 -68s102.333 -26 159 -26c43.333 0 83 6.16699 119 18.5s66.833 29.5 92.5 51.5
s45.5 47.833 59.5 77.5s21 61.834 21 96.501c0 32.667 -5.83301 62.667 -17.5 90s-28.5 52.166 -50.5 74.499s-48.833 42.833 -80.5 61.5s-67.5 36 -107.5 52c-58.667 24 -109.5 48 -152.5 72s-78.5 49.667 -106.5 77s-48.833 57.333 -62.5 90s-20.5 69.667 -20.5 111
c0 40 7.16699 77.5 21.5 112.5s34.833 66.167 61.5 93.5s59 50 97 68s80.667 30 128 36v219h86v-219c61.333 -2.66699 112.833 -11.834 154.5 -27.501s77.5 -33.167 107.5 -52.5l-45 -78c-10 6.66699 -22.667 14.5 -38 23.5s-33.666 17.5 -54.999 25.5
s-45.5 14.833 -72.5 20.5s-57.167 8.5 -90.5 8.5c-48 0 -88.5 -6.66699 -121.5 -20s-59.667 -30.5 -80 -51.5s-35.166 -44.333 -44.499 -70s-14 -50.834 -14 -75.501c0 -30 5 -57 15 -81s26 -46.333 48 -67s50.333 -40.5 85 -59.5s76.667 -38.833 126 -59.5
c50.667 -21.333 96.167 -43.833 136.5 -67.5s74.5 -50 102.5 -79s49.5 -61.5 64.5 -97.5s22.5 -77.333 22.5 -124c0 -33.333 -6.33301 -67.833 -19 -103.5s-32.334 -69 -59.001 -100s-60.167 -57.833 -100.5 -80.5s-88.166 -38 -143.499 -46v-215h-86z" />
    <glyph glyph-name="percent" unicode="%" horiz-adv-x="1577" 
d="M371 1530c42.667 0 81.499 -8.16602 116.499 -24.499s65 -40.833 90 -73.5s44.5 -73.667 58.5 -123s21 -107.333 21 -174c0 -71.333 -7.83301 -133.5 -23.5 -186.5s-37.167 -97.167 -64.5 -132.5s-59.333 -61.666 -96 -78.999s-76.334 -26 -119.001 -26
c-38 0 -74.333 7.83301 -109 23.5s-65.5 39.667 -92.5 72s-48.667 73.666 -65 123.999s-25.166 110.166 -26.499 179.499c0 72 8.83301 134.333 26.5 187s41 96.167 70 130.5s61.833 60 98.5 77s74.334 25.5 113.001 25.5h2zM357.999 1460
c-32.667 0 -61.8311 -8.50098 -87.498 -25.501s-47.5 -41.333 -65.5 -73s-31.833 -70 -41.5 -115s-14.5 -95.833 -14.5 -152.5c0 -49.333 5.33301 -93.333 16 -132s25.167 -71.5 43.5 -98.5s40.333 -47.667 66 -62s53.5 -21.5 83.5 -21.5c35.333 0 66.166 8 92.499 24
s48.333 38.833 66 68.5s30.834 65.834 39.501 108.501s13 91 13 145c0 50 -4 95.667 -12 137s-20.333 76.5 -37 105.5s-38.334 51.5 -65.001 67.5s-58.334 24 -95.001 24h-2zM332.002 149l825 1381h84l-825 -1381h-84zM1229 983c42.667 0 81.4971 -8.16895 116.497 -24.502
s65.167 -40.833 90.5 -73.5s45 -73.667 59 -123s21 -107.333 21 -174c0 -71.333 -7.83301 -133.5 -23.5 -186.5s-37.167 -97.167 -64.5 -132.5s-59.5 -61.666 -96.5 -78.999s-76.833 -26 -119.5 -26c-37.333 0 -73.5 7.83301 -108.5 23.5s-66 39.834 -93 72.501
s-48.667 74 -65 124s-24.833 109.667 -25.5 179c0 72 8.83301 134.333 26.5 187s40.834 96.167 69.501 130.5s61.334 60 98.001 77s74.334 25.5 113.001 25.5h2zM1217 912.998c-32.667 0 -61.998 -8.50098 -87.998 -25.501s-48 -41.167 -66 -72.5
s-31.833 -69.5 -41.5 -114.5s-14.5 -95.833 -14.5 -152.5c0 -49.333 5.33301 -93.333 16 -132s25.5 -71.667 44.5 -99s41.167 -48.166 66.5 -62.499s53 -21.5 83 -21.5c35.333 0 66.166 8 92.499 24s48.166 38.833 65.499 68.5s30.333 66 39 109s13 91.5 13 145.5
c0 50 -4 95.5 -12 136.5s-20.333 76 -37 105s-38.167 51.5 -64.5 67.5s-57.833 24 -94.5 24h-2z" />
    <glyph glyph-name="ampersand" unicode="&#x26;" horiz-adv-x="1208" 
d="M1098 176l-76.002 73.002c-25.333 25.333 -55.333 53.666 -90 84.999c-40 -35.333 -79 -64.833 -117 -88.5s-75.833 -42.5 -113.5 -56.5s-75.334 -23.833 -113.001 -29.5s-76.167 -8.5 -115.5 -8.5c-56.667 0 -110 9.5 -160 28.5s-93.667 45.667 -131 80
s-66.833 75.166 -88.5 122.499s-32.5 99.333 -32.5 156c0 52 8.16699 99 24.5 141s38 79.5 65 112.5s58.333 62.167 94 87.5s72.834 47.666 111.501 66.999v6c-44 54.667 -76.167 106.834 -96.5 156.501s-30.5 96.5 -30.5 140.5c0 42 7.33301 82.833 22 122.5
s36.334 75 65.001 106s63.667 56 105 75s88.666 28.5 141.999 28.5c40.667 0 78.334 -7 113.001 -21s64.667 -33.167 90 -57.5s45 -53.5 59 -87.5s21 -71 21 -111c0 -37.333 -6.16699 -72.5 -18.5 -105.5s-32.166 -65 -59.499 -96s-63.333 -61 -108 -90
s-99.334 -57.833 -164.001 -86.5v-7l127.5 -141l121 -129.5l105.5 -110l82 -83.5c16.667 21.333 32.334 45 47.001 71s28.5 56.5 41.5 91.5s25.333 75.333 37 121s22.5 99.167 32.5 160.5h94c-22.667 -122.667 -49.667 -224.5 -81 -305.5s-69.333 -145.167 -114 -192.5
l125 -120.5l113 -104.5h-129zM499.998 231.002c39.333 0 76.832 4.16895 112.499 12.502s69.167 19.666 100.5 33.999s60.5 31.166 87.5 50.499s51.5 40.333 73.5 63l-68 69l-110.5 114l-139 146.5l-153.5 166.5c-22.667 -11.333 -48 -26.333 -76 -45
s-54.333 -41.667 -79 -69s-45.5 -59.166 -62.5 -95.499s-25.5 -77.833 -25.5 -124.5c0 -48.667 8.83301 -92.834 26.5 -132.501s41.834 -73.5 72.501 -101.5s66.5 -49.667 107.5 -65s84.833 -23 131.5 -23h2zM546.997 1503c-36.667 0 -68.8301 -6.83496 -96.4971 -20.502
s-50.834 -31.667 -69.501 -54s-32.834 -48.166 -42.501 -77.499s-14.5 -60 -14.5 -92c0 -30 3.66699 -58 11 -84s16.833 -50.333 28.5 -73s24.5 -44 38.5 -64s28 -39 42 -57c45.333 21.333 86.833 42.833 124.5 64.5s70.167 44.834 97.5 69.501s48.5 51.667 63.5 81
s22.5 62 22.5 98c0 24.667 -3.83301 49.5 -11.5 74.5s-19.834 47.5 -36.501 67.5s-37.667 36.167 -63 48.5s-56 18.5 -92 18.5h-2z" />
    <glyph glyph-name="quotesingle" unicode="'" horiz-adv-x="369" 
d="M246 1630l-29 -454h-65l-29 454h123z" />
    <glyph glyph-name="parenleft" unicode="(" horiz-adv-x="553" 
d="M543 1533c-47.333 -60.667 -90.332 -124.002 -128.999 -190.002s-71.667 -136.833 -99 -212.5s-48.5 -157.334 -63.5 -245.001s-22.5 -183.5 -22.5 -287.5c0 -101.333 7.83301 -194.666 23.5 -279.999s37.5 -165 65.5 -239s61.167 -143.5 99.5 -208.5
s80.166 -128.167 125.499 -189.5h-97c-38.667 49.333 -76.667 104.333 -114 165s-70.833 128.334 -100.5 203.001s-53.5 157.5 -71.5 248.5s-27 191.833 -27 302.5c0 111.333 9 212.833 27 304.5s41.833 175.334 71.5 251.001s63.167 144.5 100.5 206.5s75.333 119 114 171
h97z" />
    <glyph glyph-name="parenright" unicode=")" horiz-adv-x="553" 
d="M10 -316c44.667 60 86.168 122.664 124.501 187.997s71.5 135.666 99.5 210.999s50 156.5 66 243.5s24 182.167 24 285.5c0 102 -7.66699 196 -23 282s-36.833 166.333 -64.5 241s-60.834 144.834 -99.501 210.501s-81 129.167 -127 190.5h96
c38.667 -50.667 76.834 -106.5 114.501 -167.5s71.167 -129.167 100.5 -204.5s53.166 -158.666 71.499 -249.999s27.5 -192.666 27.5 -303.999s-9.16699 -212.5 -27.5 -303.5s-42.166 -174 -71.499 -249s-62.833 -143.167 -100.5 -204.5s-75.834 -117.666 -114.501 -168.999
h-96z" />
    <glyph glyph-name="asterisk" unicode="*" horiz-adv-x="1118" 
d="M588 1114l173.998 211.002c6 8 12.167 15.5 18.5 22.5s13.166 10.5 20.499 10.5h10c4.66699 0 9.83398 -0.666992 15.501 -2s11.5 -4.66602 17.5 -9.99902c5.33301 -6 8.66602 -11.833 9.99902 -17.5s2 -10.834 2 -15.501v-10c0 -7.33301 -3.33301 -14.166 -10 -20.499
s-14.334 -12.5 -23.001 -18.5l-211 -174l4 -13l273 29h13c24 0 39.833 -5 47.5 -15s11.5 -20 11.5 -30c0 -5.33301 -0.666992 -10.833 -2 -16.5s-4.16602 -10.667 -8.49902 -15s-10.333 -7.83301 -18 -10.5s-17.5 -4 -29.5 -4h-6.5c-2.33301 0 -4.83301 0.333008 -7.5 1
l-273 28l-4 -12l211 -174c8.66699 -6 16.334 -12.167 23.001 -18.5s10 -13.166 10 -20.499v-10c0 -4.66699 -0.666992 -10 -2 -16s-4.66602 -11.667 -9.99902 -17c-9.33301 -8 -19 -12 -29 -12c-9.33301 0 -18.666 3 -27.999 9s-17.666 14 -24.999 24l-174 211l-13 -4
l29 -273v-15c0 -24 -4.66699 -39.5 -14 -46.5s-19.666 -10.5 -30.999 -10.5c-5.33301 0 -10.666 0.666992 -15.999 2s-10.166 4.16602 -14.499 8.49902s-8 10.333 -11 18s-4.5 17.5 -4.5 29.5c0 7.33301 0.333008 12 1 14l29 273l-13 4l-174 -211
c-8 -10 -16.5 -18 -25.5 -24s-18.167 -9 -27.5 -9c-11.333 0 -21 4 -29 12s-12 17.667 -12 29c0 9.33301 3 18.5 9 27.5s14 17.5 24 25.5l211 174l-4 12l-273 -28c-2 -0.666992 -7 -1 -15 -1c-24 0 -39.333 4.83301 -46 14.5s-10 20.167 -10 31.5
c0 4.66699 0.666992 9.66699 2 15s4 10.333 8 15s9.83301 8.33398 17.5 11.001s17.5 4 29.5 4h14l273 -29l4 13l-211 174c-10 7.33301 -18 15.666 -24 24.999s-9 18.666 -9 27.999c0 10 4 19.667 12 29c6 5.33301 11.833 8.66602 17.5 9.99902s10.834 2 15.501 2h10
c7.33301 0 14.166 -3.5 20.499 -10.5s12.5 -14.5 18.5 -22.5l174 -211l13 4l-29 273c-0.666992 2 -1 6.33301 -1 13c0 12 1.5 21.833 4.5 29.5s6.66699 13.667 11 18s9.16602 7.16602 14.499 8.49902s10.666 2 15.999 2s10.666 -0.666992 15.999 -2s10.166 -4 14.499 -8
s7.83301 -9.83301 10.5 -17.5s4 -17.5 4 -29.5v-14l-29 -273z" />
    <glyph glyph-name="plus" unicode="+" horiz-adv-x="1221" 
d="M655 1240v-502h484v-82h-484v-506h-90v506h-483v82h483v502h90z" />
    <glyph glyph-name="comma" unicode="," horiz-adv-x="502" 
d="M143 -162c48.667 56 83.001 104.499 103.001 145.499s30 80.167 30 117.5c0 8 -0.333008 16 -1 24s-1.66699 16 -3 24c-4 -1.33301 -9.33301 -2 -16 -2h-10c-23.333 0 -43.833 6.83301 -61.5 20.5s-26.5 32.834 -26.5 57.501c0 16.667 2.83301 31 8.5 43s13 22 22 30
s19 13.833 30 17.5s22.167 5.5 33.5 5.5c32 0 57.667 -11 77 -33s29 -58.667 29 -110c0 -32 -4.16699 -64.5 -12.5 -97.5s-20.333 -65.5 -36 -97.5s-34.834 -63.167 -57.501 -93.5s-48 -58.5 -76 -84.5z" />
    <glyph glyph-name="hyphen" unicode="-" horiz-adv-x="742" 
d="M642 693v-78h-542v78h542z" />
    <glyph glyph-name="period" unicode="." horiz-adv-x="530" 
d="M172 246c0 12 2.33301 23.6689 7 35.002s11.334 21.166 20.001 29.499s18.667 15 30 20s23.666 7.5 36.999 7.5c26 0 47.833 -8.83301 65.5 -26.5s26.5 -39.5 26.5 -65.5c0 -28 -9.16699 -50.833 -27.5 -68.5s-39.833 -26.5 -64.5 -26.5c-12.667 0 -24.667 2.5 -36 7.5
s-21.333 11.833 -30 20.5s-15.5 18.667 -20.5 30s-7.5 23.666 -7.5 36.999z" />
    <glyph glyph-name="slash" unicode="/" horiz-adv-x="532" 
d="M2 150l426 1362h104l-432 -1362h-98z" />
    <glyph glyph-name="zero" unicode="0" 
d="M747 908c0 -124 -8.33203 -232.831 -24.999 -326.498s-40.5 -172 -71.5 -235s-68.833 -110.333 -113.5 -142s-95 -47.5 -151 -47.5c-42.667 0 -83.834 14 -123.501 42s-75 71.167 -106 129.5s-56 132.666 -75 222.999s-29.167 197.833 -30.5 322.5
c0 126.667 10.167 236.167 30.5 328.5s47.333 168.5 81 228.5s72.167 104.5 115.5 133.5s87.666 43.5 132.999 43.5c48.667 0 93.667 -14.167 135 -42.5s76.833 -71.5 106.5 -129.5s52.834 -130.833 69.501 -218.5s25 -190.834 25 -309.501zM649.001 894.002
c0 93.333 -4.83203 178.5 -14.499 255.5s-24.5 143 -44.5 198s-45.833 97.667 -77.5 128s-69.5 45.5 -113.5 45.5c-36.667 0 -70.334 -15 -101.001 -45s-57 -72.333 -79 -127s-39.167 -120.5 -51.5 -197.5s-18.5 -162.833 -18.5 -257.5v-33
c0 -96 6.16699 -182.167 18.5 -258.5s29.333 -141 51 -194s47.667 -93.667 78 -122s63.5 -42.5 99.5 -42.5c43.333 0 80.833 15.5 112.5 46.5s58 74.833 79 131.5s36.5 125 46.5 205s15 169 15 267z" />
    <glyph glyph-name="one" unicode="1" horiz-adv-x="659" 
d="M365 1465l-80.5 -65.5l-77.5 -63.5l-21 92l186 153h87v-1397h-94v1281z" />
    <glyph glyph-name="two" unicode="2" 
d="M63 184l0.000976562 63l99 130l144 193c42 57.333 78.833 110 110.5 158s58.667 92 81 132s40.333 78.167 54 114.5s23.667 71.833 30 106.5s9.5 70.334 9.5 107.001c0 38 -3.16699 76.5 -9.5 115.5s-18 74.167 -35 105.5s-40 56.833 -69 76.5s-65.833 29.5 -110.5 29.5
c-22.667 0 -45 -4.5 -67 -13.5s-43 -20.5 -63 -34.5s-38.833 -29.833 -56.5 -47.5s-33.5 -35.167 -47.5 -52.5l-35 84c38 50 80.667 88.667 128 116s99.333 41 156 41c39.333 0 74.166 -6.33301 104.499 -19s56.833 -29.334 79.5 -50.001s41.667 -44.5 57 -71.5
s27.833 -55 37.5 -84s16.667 -58 21 -87s6.5 -55.833 6.5 -80.5c0 -69.333 -9 -135 -27 -197s-45 -126 -81 -192s-81 -136.333 -135 -211l-188 -252l-69 -88h2v-4h527v-88h-654z" />
    <glyph glyph-name="three" unicode="3" 
d="M100 358c10.667 -11.333 24.832 -23.3291 42.499 -35.9961s37.167 -24.5 58.5 -35.5s44 -20.167 68 -27.5s47.667 -11 71 -11c35.333 0 66.333 5.16699 93 15.5s49.5 24.166 68.5 41.499s34.833 37 47.5 59s22.5 44.5 29.5 67.5s12 45.5 15 67.5s4.5 41.667 4.5 59v13
c-0.666992 60.667 -10.167 111.834 -28.5 153.501s-41.833 75.334 -70.5 101.001s-60.834 44.167 -96.501 55.5s-71.5 17 -107.5 17h-84v88h89c28.667 0 58.167 5.5 88.5 16.5s57.833 27.833 82.5 50.5s44.834 51.667 60.501 87s23.5 77 23.5 125c0 30 -3.33301 60 -10 90
s-17.5 57 -32.5 81s-35.167 43.5 -60.5 58.5s-56.333 22.5 -93 22.5c-19.333 0 -39 -3.33301 -59 -10s-39.167 -15.667 -57.5 -27s-36 -24.333 -53 -39s-32.167 -29.667 -45.5 -45l-36 92c12.667 14.667 28.334 29.167 47.001 43.5s39.334 27.166 62.001 38.499
s46.834 20.5 72.501 27.5s51.5 10.5 77.5 10.5c53.333 0 98.333 -10.167 135 -30.5s66.167 -46.333 88.5 -78s38.333 -67 48 -106s14.5 -77.5 14.5 -115.5c0 -35.333 -5.83301 -69.5 -17.5 -102.5s-27.667 -64 -48 -93s-44.333 -55.333 -72 -79
s-57.834 -43.834 -90.501 -60.501c34.667 -9.33301 68.5 -25 101.5 -47s62 -49 87 -81s45.167 -68.333 60.5 -109s23 -84.334 23 -131.001c0 -50 -7 -99.833 -21 -149.5s-36 -94.5 -66 -134.5s-68.167 -72.333 -114.5 -97s-101.5 -37 -165.5 -37
c-30 0 -58.5 3.33301 -85.5 10s-51.833 15.167 -74.5 25.5s-42.834 21.666 -60.501 33.999s-32.167 24.166 -43.5 35.499z" />
    <glyph glyph-name="four" unicode="4" horiz-adv-x="830" 
d="M548 184v408h-518v69l531 920h78v-901h162v-88h-162v-408h-91zM548 680v773l-54 -151l-355 -617h1v-5h408z" />
    <glyph glyph-name="five" unicode="5" 
d="M669 1489h-402l-47 -446c10.667 1.33301 23.334 2.83301 38.001 4.5s33.667 2.5 57 2.5c34 0 66 -3.66699 96 -11s60 -18.666 90 -33.999c21.333 -13.333 42.833 -31.5 64.5 -54.5s41 -50.5 58 -82.5s30.833 -68.167 41.5 -108.5s16 -84.5 16 -132.5
c0 -70 -9.5 -133.833 -28.5 -191.5s-44.667 -107.167 -77 -148.5s-70.333 -73.333 -114 -96s-90.167 -34 -139.5 -34c-30 0 -58.167 3.16699 -84.5 9.5s-50.5 14.5 -72.5 24.5s-41.5 21 -58.5 33s-31.167 23.667 -42.5 35l33 94c12 -11.333 26.167 -23.166 42.5 -35.499
s34.5 -23.666 54.5 -33.999s41.333 -18.833 64 -25.5s46 -10 70 -10c37.333 0 71.833 9.33301 103.5 28s59 44.167 82 76.5s41 70.166 54 113.499s19.5 89.666 19.5 138.999c0 47.333 -5.5 92.5 -16.5 135.5s-28.333 80.667 -52 113s-53.834 58.166 -90.501 77.499
s-81 29 -133 29c-32 0 -62.333 -2.16699 -91 -6.5s-54.667 -8.83301 -78 -13.5l62 641h481v-92z" />
    <glyph glyph-name="six" unicode="6" 
d="M750 650c0 -58 -7.33301 -116.33 -22 -174.997s-36.5 -111.5 -65.5 -158.5s-65 -85.333 -108 -115s-92.833 -44.5 -149.5 -44.5c-46.667 0 -91.5 11.833 -134.5 35.5s-81 60 -114 109s-59.5 110.833 -79.5 185.5s-30 163 -30 265c0 70.667 4.83301 137.5 14.5 200.5
s22.667 121.5 39 175.5s35.5 103.167 57.5 147.5s45.333 83.166 70 116.499c36.667 48 79.834 89 129.501 123s103.834 59 162.501 75c20 6 41.333 10.5 64 13.5s42.667 4.5 60 4.5l2 -97c-18.667 0 -39.167 -0.833008 -61.5 -2.5s-44.833 -6.16699 -67.5 -13.5
c-51.333 -14 -98 -38.167 -140 -72.5s-78.5 -76 -109.5 -125s-56.333 -103.833 -76 -164.5s-32.834 -124.334 -39.501 -191.001c13.333 22.667 29 44 47 64s38.333 37.5 61 52.5s47.167 26.833 73.5 35.5s54.5 13 84.5 13c52 0 98.5 -11.667 139.5 -35
s75.667 -55.5 104 -96.5s50.166 -89.333 65.499 -145s23 -115.834 23 -180.501zM652 646.003c0 59.333 -6.33105 112.003 -18.998 158.003s-30.167 84.667 -52.5 116s-48.833 55.166 -79.5 71.499s-64 24.5 -100 24.5c-28.667 0 -58.167 -7.83301 -88.5 -23.5
s-58 -37 -83 -64s-45.667 -58.5 -62 -94.5s-24.5 -74.333 -24.5 -115c0 -64.667 5.66699 -125.667 17 -183s28.166 -107.5 50.499 -150.5s50.166 -77 83.499 -102s72.333 -37.5 117 -37.5c37.333 0 70.833 10.667 100.5 32s55 50.166 76 86.499s37 78.666 48 126.999
s16.5 99.833 16.5 154.5z" />
    <glyph glyph-name="seven" unicode="7" 
d="M735 1581v-81l-482 -1316h-91l475 1305v4h-540v88h638z" />
    <glyph glyph-name="eight" unicode="8" 
d="M706 1267c0 -27.333 -2.66504 -55.833 -7.99805 -85.5s-15 -59.5 -29 -89.5s-33.333 -59.333 -58 -88s-56.334 -55.334 -95.001 -80.001h-2c80 -38 138.167 -88.167 174.5 -150.5s54.5 -132.833 54.5 -211.5c0 -63.333 -9.66699 -120 -29 -170s-45 -92.5 -77 -127.5
s-68.667 -61.667 -110 -80s-84 -27.5 -128 -27.5c-46.667 0 -90.834 8.66699 -132.501 26s-78.167 42.5 -109.5 75.5s-56.166 73 -74.499 120s-27.5 100.5 -27.5 160.5c0 85.333 18.667 160.5 56 225.5s92.333 119.5 165 163.5c-32.667 18 -60.5 39 -83.5 63
s-41.833 49.833 -56.5 77.5s-25.334 56.167 -32.001 85.5s-10 58.666 -10 87.999c0 52.667 8 101.334 24 146.001s38 83.334 66 116.001s61.333 58.167 100 76.5s81 27.5 127 27.5c44.667 0 85.167 -8.66699 121.5 -26s67.333 -41.166 93 -71.499s45.5 -66.333 59.5 -108
s21 -86.834 21 -135.501zM648.002 543c0 51.333 -4.83008 96.167 -14.4971 134.5s-24.834 71.5 -45.501 99.5s-46.667 51.667 -78 71s-68.666 35.666 -111.999 48.999c-36 -11.333 -69 -27.833 -99 -49.5s-56 -47.334 -78 -77.001s-39 -62.5 -51 -98.5s-18 -74 -18 -114
c0 -3.33301 -0.166992 -6.66602 -0.5 -9.99902s-0.5 -6.66602 -0.5 -9.99902c0 -38 5.5 -74.833 16.5 -110.5s27.167 -67 48.5 -94s47.166 -48.667 77.499 -65s65.166 -24.5 104.499 -24.5s74.5 8.16699 105.5 24.5s57.167 38.333 78.5 66s37.666 59.5 48.999 95.5
s17 73.667 17 113zM610.005 1261c0 28.667 -3.50098 58.5 -10.501 89.5s-18.667 59.333 -35 85s-37.666 46.834 -63.999 63.501s-58.833 25 -97.5 25c-35.333 0 -66.5 -7.5 -93.5 -22.5s-49.5 -35 -67.5 -60s-31.5 -53.5 -40.5 -85.5s-13.5 -65 -13.5 -99v-4
c0 -82.667 17.333 -147.167 52 -193.5s89 -79.833 163 -100.5c27.333 10.667 53.5 24.667 78.5 42s47 38.5 66 63.5s34.167 53.667 45.5 86s17 69.166 17 110.499z" />
    <glyph glyph-name="nine" unicode="9" 
d="M752 1014c0 -82 -5.49902 -157.496 -16.499 -226.496s-25.333 -131.5 -43 -187.5s-37.834 -105.667 -60.501 -149s-45.667 -80 -69 -110c-16 -19.333 -34 -37.833 -54 -55.5s-40.667 -33.834 -62 -48.501s-42.833 -27.167 -64.5 -37.5s-41.834 -17.833 -60.501 -22.5
c-28 -6.66699 -53.833 -11.834 -77.5 -15.501s-45.5 -5.5 -65.5 -5.5h-9.5c-3 0 -6.16699 0.333008 -9.5 1v100c12 -2 24.667 -3 38 -3c28.667 0 60.667 4 96 12c40 8 80.5 27.667 121.5 59s77.5 70.333 109.5 117c28.667 46 54.167 101.5 76.5 166.5
s38.166 140.833 47.499 227.5c-69.333 -105.333 -158.333 -158 -267 -158c-52.667 0 -98.667 12.5 -138 37.5s-72.166 57.833 -98.499 98.5s-46 86.667 -59 138s-19.5 103 -19.5 155c0 63.333 8.33301 125 25 185s40.5 113.5 71.5 160.5s68.333 84.667 112 113
s92.834 42.5 147.501 42.5c44 0 85.833 -11.833 125.5 -35.5s74.5 -59.834 104.5 -108.501s54 -110.334 72 -185.001s27 -163 27 -265zM656.001 1023c0 68 -4.83203 132.171 -14.499 192.504s-24.667 113 -45 158s-46.333 80.5 -78 106.5s-69.5 39 -113.5 39
c-37.333 0 -71 -11.333 -101 -34s-55.5 -52.834 -76.5 -90.501s-37 -81.167 -48 -130.5s-16.5 -100.333 -16.5 -153c0 -48.667 5.5 -93.834 16.5 -135.501s26.667 -77.834 47 -108.501s44.666 -54.667 72.999 -72s59.833 -26 94.5 -26c32 0 63.5 7 94.5 21
s59 32.833 84 56.5s45.167 50.667 60.5 81s23 62.166 23 95.499z" />
    <glyph glyph-name="colon" unicode=":" horiz-adv-x="530" 
d="M172 834c0 12 2.33203 23.668 6.99902 35.001s11.334 21.166 20.001 29.499s18.667 15 30 20s23.666 7.5 36.999 7.5c26 0 47.833 -8.83301 65.5 -26.5s26.5 -39.5 26.5 -65.5c0 -13.333 -2.5 -25.666 -7.5 -36.999s-11.667 -21.333 -20 -30
s-18.166 -15.334 -29.499 -20.001s-23 -7 -35 -7c-12.667 0 -24.667 2.5 -36 7.5s-21.333 11.833 -30 20.5s-15.5 18.667 -20.5 30s-7.5 23.333 -7.5 36zM171.999 247.001c0 12 2.33301 23.6689 7 35.002s11.334 21.166 20.001 29.499s18.667 15 30 20
s23.666 7.5 36.999 7.5c26 0 47.833 -8.83301 65.5 -26.5s26.5 -39.5 26.5 -65.5c0 -28 -9.16699 -50.833 -27.5 -68.5s-39.833 -26.5 -64.5 -26.5c-12.667 0 -24.667 2.5 -36 7.5s-21.333 11.833 -30 20.5s-15.5 18.667 -20.5 30s-7.5 23.666 -7.5 36.999z" />
    <glyph glyph-name="semicolon" unicode=";" horiz-adv-x="502" 
d="M158 830c0 12 2.33203 23.668 6.99902 35.001s11.334 21.166 20.001 29.499s18.667 15 30 20s23.666 7.5 36.999 7.5c26 0 47.833 -8.83301 65.5 -26.5s26.5 -39.5 26.5 -65.5c0 -13.333 -2.5 -25.666 -7.5 -36.999s-11.667 -21.333 -20 -30
s-18.166 -15.334 -29.499 -20.001s-23 -7 -35 -7c-12.667 0 -24.667 2.5 -36 7.5s-21.333 11.833 -30 20.5s-15.5 18.667 -20.5 30s-7.5 23.333 -7.5 36zM142.999 -162.999c48.667 56 83.001 104.499 103.001 145.499s30 80.167 30 117.5c0 8 -0.333008 16 -1 24
s-1.66699 16 -3 24c-4 -1.33301 -9.33301 -2 -16 -2h-10c-23.333 0 -43.833 6.83301 -61.5 20.5s-26.5 32.834 -26.5 57.501c0 16.667 2.83301 31 8.5 43s13 22 22 30s19 13.833 30 17.5s22.167 5.5 33.5 5.5c32 0 57.667 -11 77 -33s29 -58.667 29 -110
c0 -32 -4.16699 -64.5 -12.5 -97.5s-20.333 -65.5 -36 -97.5s-34.834 -63.167 -57.501 -93.5s-48 -58.5 -76 -84.5z" />
    <glyph glyph-name="less" unicode="&#x3c;" horiz-adv-x="1014" 
d="M133 583v85l797 307v-54l-754 -295l754 -296v-55z" />
    <glyph glyph-name="equal" unicode="=" horiz-adv-x="1014" 
d="M930 575h-793v54h793v-54zM930 950h-793v56h793v-56z" />
    <glyph glyph-name="greater" unicode="&#x3e;" horiz-adv-x="1014" 
d="M943 597l-810 -325v58l761 301l-761 288v55l810 -305v-72z" />
    <glyph glyph-name="question" unicode="?" horiz-adv-x="827" 
d="M419 332c25.333 0 44.333 -8.16895 57 -24.502s19 -36.166 19 -59.499c0 -21.333 -6.33301 -39.666 -19 -54.999s-31.667 -23 -57 -23c-26 0 -46.667 7.33301 -62 22s-23 33.334 -23 56.001c0 23.333 7.66699 43.166 23 59.499s36 24.5 62 24.5zM464 501.998
l-87.001 0.00292969v150c0 22 3.66699 43.167 11 63.5s17.666 40.5 30.999 60.5s29.166 40.167 47.499 60.5s38.5 41.166 60.5 62.499c54 49.333 95.333 97.166 124 143.499s43 96.833 43 151.5c0 44 -4.33301 85 -13 123s-23 71 -43 99s-46 50 -78 66s-71.333 24 -118 24
c-31.333 0 -61.833 -5.83301 -91.5 -17.5s-56.167 -28 -79.5 -49s-42.166 -46.167 -56.499 -75.5s-21.5 -61.333 -21.5 -96c0 -19.333 2.66699 -40.166 8 -62.499s13.5 -43 24.5 -62s25 -34.833 42 -47.5s37.167 -19 60.5 -19c36 0 62.833 9.5 80.5 28.5
s26.5 52.833 26.5 101.5c0 9.33301 -0.333008 19.666 -1 30.999s-3.66699 28.666 -9 51.999h42c10.667 -26 18.167 -49.167 22.5 -69.5s6.5 -38.166 6.5 -53.499c0 -50 -13.833 -89.833 -41.5 -119.5s-69.834 -44.5 -126.501 -44.5c-35.333 0 -67 7.83301 -95 23.5
s-51.667 36 -71 61s-34.166 53.333 -44.499 85s-15.5 63.5 -15.5 95.5c0 48 9.33301 91.333 28 130s43.667 71.5 75 98.5s67.5 47.833 108.5 62.5s83.833 22 128.5 22c56.667 0 106.334 -9.33301 149.001 -28s78.334 -45 107.001 -79s50 -74.667 64 -122s21 -100 21 -158
c0 -36.667 -5.16699 -69.834 -15.5 -99.501s-25 -58.5 -44 -86.5s-41.667 -56.5 -68 -85.5l-88.5 -95.5c-30 -32 -54.833 -60.5 -74.5 -85.5s-29.5 -50.833 -29.5 -77.5c0 -6 0.333008 -10 1 -12v-150z" />
    <glyph glyph-name="at" unicode="@" horiz-adv-x="1569" 
d="M1042 1142c-13.333 5.33301 -32.5029 10.833 -57.5029 16.5s-55.5 8.5 -91.5 8.5c-53.333 0 -104 -10 -152 -30s-90.167 -48 -126.5 -84s-65.166 -78.667 -86.499 -128s-32 -103.333 -32 -162c0 -24 3.66699 -47.167 11 -69.5s18.333 -42 33 -59
s33.334 -30.5 56.001 -40.5s49.334 -15 80.001 -15c40 0 78 11.167 114 33.5s68.167 50.166 96.5 83.499s52 69.333 71 108s31.5 74.334 37.5 107.001zM1114 239c-58.667 -32 -119.168 -55.002 -181.501 -69.002s-128.833 -21 -199.5 -21
c-59.333 0 -116.5 7.33301 -171.5 22s-106.833 35.5 -155.5 62.5s-93.167 60 -133.5 99s-74.833 82.833 -103.5 131.5s-51 102 -67 160s-24 119.333 -24 184c0 67.333 7.83301 133.333 23.5 198s38.5 125.5 68.5 182.5s67 109.333 111 157s94.5 88.667 151.5 123
s120.333 61.166 190 80.499s144.834 29 225.501 29c98 0 186.5 -16.167 265.5 -48.5s146.5 -77 202.5 -134s99.167 -124 129.5 -201s45.5 -159.833 45.5 -248.5c0 -70 -10.667 -132.667 -32 -188s-49 -102 -83 -140s-72.5 -67 -115.5 -87s-86.5 -30 -130.5 -30
c-18 0 -36 3.33301 -54 10s-34.333 17.167 -49 31.5s-26.5 32.666 -35.5 54.999s-13.5 49.166 -13.5 80.499v13.5c0 4.33301 0.333008 9.16602 1 14.499h-8c-19.333 -32 -40.166 -60.833 -62.499 -86.5s-46.833 -47.167 -73.5 -64.5s-56.334 -30.666 -89.001 -39.999
s-69 -14 -109 -14c-29.333 0 -58 6.33301 -86 19s-53 30.5 -75 53.5s-39.667 50.667 -53 83s-20 68.5 -20 108.5c0 68 13.5 131.333 40.5 190s63.5 109.5 109.5 152.5s99.333 76.667 160 101s124.667 36.5 192 36.5c50.667 0 94.667 -4.16699 132 -12.5
s72 -19.166 104 -32.499l-70 -342c-10.667 -51.333 -16 -96.666 -16 -135.999c0 -48 8.16699 -83.333 24.5 -106s39.5 -34.334 69.5 -35.001h6c29.333 0 58.333 8.16699 87 24.5s54.334 39.833 77.001 70.5s41 67.834 55 111.501s21 92.834 21 147.501
c0 81.333 -12.667 156.666 -38 225.999s-62.166 129.333 -110.499 180s-107.5 90.334 -177.5 119.001s-149.333 43 -238 43c-90.667 0 -175.834 -15.833 -255.501 -47.5s-149.334 -77.167 -209.001 -136.5s-106.667 -131.166 -141 -215.499s-51.5 -179.166 -51.5 -284.499
c0 -86.667 14.833 -166.167 44.5 -238.5s70.167 -134.5 121.5 -186.5s111.166 -92.5 179.499 -121.5s141.5 -43.5 219.5 -43.5c66.667 0 129.334 7 188.001 21s110 35 154 63z" />
    <glyph glyph-name="A" unicode="A" horiz-adv-x="1062" 
d="M288 594l-154 -437h-85l451 1242h80l449 -1242h-86l-156 437h-499zM760 670l-157.999 436.999c-8 20.667 -14.833 39.667 -20.5 57s-10.834 33.833 -15.501 49.5l-13 45.5l-12 45h-3c-8.66699 -32 -17.667 -62.667 -27 -92s-21 -62.666 -35 -99.999l-159 -442h443z" />
    <glyph glyph-name="B" unicode="B" horiz-adv-x="909" 
d="M146 1383c34 8.66699 72.668 15.5029 116.001 20.5029s88 7.5 134 7.5c76.667 0 140 -9 190 -27s92 -45.333 126 -82c23.333 -26 40.666 -55.667 51.999 -89s17 -72 17 -116c0 -30.667 -5 -60.334 -15 -89.001s-23.833 -55 -41.5 -79s-38.5 -45.333 -62.5 -64
s-50 -33.334 -78 -44.001v-6c20 -4 44 -12.667 72 -26s54.667 -32.5 80 -57.5s47 -56.167 65 -93.5s27 -82 27 -134s-7.66699 -96.833 -23 -134.5s-36 -70.834 -62 -99.501c-40 -44 -91.5 -75.5 -154.5 -94.5s-140.5 -28.5 -232.5 -28.5c-42.667 0 -82 1.33301 -118 4
s-66.667 4.66699 -92 6v1226zM228.001 850.003l195.001 0.00292969c44 0 83 6.5 117 19.5s62.667 30.5 86 52.5s41.166 47.667 53.499 77s18.5 60.666 18.5 93.999c0 47.333 -8.16699 86.666 -24.5 117.999s-38.5 56.166 -66.5 74.499s-60.5 31.333 -97.5 39
s-76.5 11.5 -118.5 11.5c-44 0 -78.833 -1.66699 -104.5 -5s-45.167 -7 -58.5 -11v-470zM228.002 233.006c18.667 -4.66699 41.167 -7.66699 67.5 -9s55.833 -2 88.5 -2c44 0 87.5 4.16699 130.5 12.5s81.5 23 115.5 44s61.333 49.333 82 85s31 81.167 31 136.5
c0 48.667 -9.33301 90.5 -28 125.5s-43.834 63.833 -75.501 86.5s-68.667 39.167 -111 49.5s-87.166 15.5 -134.499 15.5h-166v-544z" />
    <glyph glyph-name="C" unicode="C" horiz-adv-x="1062" 
d="M1003 207c-30.667 -18.667 -76.3359 -35.335 -137.003 -50.002s-131.667 -22 -213 -22c-75.333 0 -148.333 13 -219 39s-133.5 65.333 -188.5 118s-99.167 119 -132.5 199s-50 174 -50 282c0 54 6 107.5 18 160.5s29.833 103.5 53.5 151.5s53.334 92.667 89.001 134
s77 77 124 107s99.667 53.5 158 70.5s122.5 25.5 192.5 25.5c42.667 0 80.5 -2.33301 113.5 -7s61.833 -10.167 86.5 -16.5s45.334 -13.166 62.001 -20.499s30 -13.666 40 -18.999l-26 -76c-34 18.667 -74.667 33.834 -122 45.501s-97 17.5 -149 17.5
c-90.667 0 -170.5 -14.5 -239.5 -43.5s-126.833 -69.333 -173.5 -121s-82 -112.834 -106 -183.501s-36 -148 -36 -232c0 -76.667 11.333 -148.667 34 -216s56.5 -126 101.5 -176s101 -89.5 168 -118.5s144.5 -43.5 232.5 -43.5c54.667 0 107.834 5.83301 159.501 17.5
s96.5 28.167 134.5 49.5z" />
    <glyph glyph-name="D" unicode="D" horiz-adv-x="1201" 
d="M146 1383c50 7.33301 102.669 13.834 158.002 19.501s114.333 8.5 177 8.5c120 0 224 -17.167 312 -51.5s158 -83.833 210 -148.5c47.333 -56 81.666 -117.333 102.999 -184s32 -140.334 32 -221.001c0 -35.333 -2.66699 -72.333 -8 -111s-14 -77.667 -26 -117
s-27.833 -78 -47.5 -116s-43.834 -74.333 -72.501 -109c-54 -64.667 -127.167 -115.167 -219.5 -151.5s-201.833 -54.5 -328.5 -54.5c-50.667 0 -99.5 0.5 -146.5 1.5s-94.833 3.83301 -143.5 8.5v1226zM228.002 233.001c26 -4.66699 58.166 -7.66699 96.499 -9
s79.833 -2 124.5 -2c106 0 197.167 15.167 273.5 45.5s139.333 71.833 189 124.5s86.167 114.5 109.5 185.5s35 146.833 35 227.5v7c0 74.667 -11.333 144 -34 208s-57.667 119.5 -105 166.5s-107.666 83.667 -180.999 110s-160.666 39.5 -261.999 39.5
c-54 0 -101.333 -2.5 -142 -7.5s-75.334 -10.833 -104.001 -17.5v-1078z" />
    <glyph glyph-name="E" unicode="E" horiz-adv-x="848" 
d="M724 775h-496v-542h553v-76h-635v1242h607v-75h-525v-474h496v-75z" />
    <glyph glyph-name="F" unicode="F" horiz-adv-x="846" 
d="M146 1399h607v-75h-525v-488h480v-76h-480v-603h-82v1242z" />
    <glyph glyph-name="G" unicode="G" horiz-adv-x="1151" 
d="M1047 220l-59 -22c-23.333 -8.66699 -50.833 -17 -82.5 -25s-67 -14.667 -106 -20s-81.833 -8 -128.5 -8c-84.667 0 -164.5 13.333 -239.5 40s-143.5 72 -205.5 136c-24.667 26 -47 55.667 -67 89s-37.167 69.666 -51.5 108.999s-25.333 80.833 -33 124.5
s-11.5 89.167 -11.5 136.5c0 48.667 5.66699 98.167 17 148.5s28.5 98.833 51.5 145.5s52.167 90.667 87.5 132s77 77.333 125 108s102.667 54.834 164 72.501s129.333 26.5 204 26.5c34.667 0 67.667 -2.16699 99 -6.5s59.833 -9.66602 85.5 -15.999
s48.167 -13.166 67.5 -20.499s34.666 -14 45.999 -20l-26 -74c-34.667 17.333 -74.167 31.833 -118.5 43.5s-96.833 17.5 -157.5 17.5c-91.333 0 -172 -14.833 -242 -44.5s-128.5 -69.834 -175.5 -120.501s-82.5 -110 -106.5 -178s-36 -140.333 -36 -217
c0 -80.667 12 -155 36 -223s59 -126.833 105 -176.5s102.5 -88.334 169.5 -116.001s143.167 -41.5 228.5 -41.5c68.667 0 125.834 4.83301 171.501 14.5s81.5 22.167 107.5 37.5v425h-289v74h370v-551z" />
    <glyph glyph-name="H" unicode="H" horiz-adv-x="1154" 
d="M228 1399v-543h699v543h81v-1242h-81v623h-699v-623h-82v1242h82z" />
    <glyph glyph-name="I" unicode="I" horiz-adv-x="373" 
d="M228 1399v-1242h-82v1242h82z" />
    <glyph glyph-name="J" unicode="J" horiz-adv-x="627" 
d="M413 1399h81.001v-836c0 -57.333 -4.33301 -107.833 -13 -151.5s-20.5 -81.334 -35.5 -113.001s-33 -58 -54 -79s-43.5 -37.833 -67.5 -50.5s-49.167 -21.5 -75.5 -26.5s-52.833 -7.5 -79.5 -7.5c-14.667 0 -29.834 1 -45.501 3s-30.667 4.83301 -45 8.5
s-27.5 7.5 -39.5 11.5s-21.667 8 -29 12l20 74c15.333 -8.66699 34.833 -16.167 58.5 -22.5s50.5 -9.5 80.5 -9.5c38.667 0 73.167 5.83301 103.5 17.5s55.833 31.834 76.5 60.501s36.5 67 47.5 115s16.5 108.667 16.5 182v812z" />
    <glyph glyph-name="K" unicode="K" horiz-adv-x="895" 
d="M146 1399h82v-635h6c16.667 24 33.667 46.167 51 66.5l51 58.5l445 510h104l-472 -528l521 -714h-102l-476 657l-128 -144v-513h-82v1242z" />
    <glyph glyph-name="L" unicode="L" horiz-adv-x="814" 
d="M146 1399h82v-1166h553v-76h-635v1242z" />
    <glyph glyph-name="M" unicode="M" horiz-adv-x="1402" 
d="M1179 743l-8.5 146.997l-8.5 151.5c-2.66699 49.667 -4.83398 96.834 -6.50098 141.501s-2.5 83.667 -2.5 117h-4l-74.5 -211l-92.5 -253l-258 -679h-63l-242 669l-90.5 260c-25.667 76.667 -47.5 148 -65.5 214h-5c-1.33301 -36 -2.66602 -76.5 -3.99902 -121.5
s-3 -92.667 -5 -143s-4.5 -102 -7.5 -155s-6.83301 -104.833 -11.5 -155.5l-39 -568h-80l90 1242h92l269 -740l75.5 -214.5c21.667 -64.333 40.834 -124.833 57.501 -181.5h3c15.333 52.667 34.166 110.834 56.499 174.501s49.5 136.834 81.5 219.501l282 742h96l79 -1242
h-79z" />
    <glyph glyph-name="N" unicode="N" horiz-adv-x="1171" 
d="M146 157l-0.00195312 1242h76l506 -765l71 -106.5l59.5 -91.5l51.5 -83c16 -26.667 31.333 -53.667 46 -81l3 3c-6.66699 72 -10.667 146.667 -12 224s-2 164 -2 260v640h80v-1242h-74l-490 739l-134 205c-41.333 64 -77 124.333 -107 181l-5 -4
c2.66699 -35.333 4.83398 -70.333 6.50098 -105s2.83398 -70.334 3.50098 -107.001s1 -75.167 1 -115.5v-129.5v-664h-80z" />
    <glyph glyph-name="O" unicode="O" horiz-adv-x="1249" 
d="M619 135c-80 0 -153.831 15.6641 -221.498 46.9971s-126.334 74.833 -176.001 130.5s-88.5 121.834 -116.5 198.501s-42 160.334 -42 251.001c0 98 14.5 187.5 43.5 268.5s69 150.5 120 208.5s111 103 180 135s143.5 48 223.5 48c82 0 157.167 -15.833 225.5 -47.5
s127 -75.5 176 -131.5s87 -122.167 114 -198.5s40.5 -159.166 40.5 -248.499c0 -108 -15.833 -203.167 -47.5 -285.5s-73.834 -151.333 -126.501 -207s-113 -97.667 -181 -126s-138.333 -42.5 -211 -42.5h-1zM622.002 208.997c74 0 140.669 14.6631 200.002 43.9961
s109.666 69.833 150.999 121.5s73.166 112.834 95.499 183.501s33.5 147 33.5 229c0 67.333 -10 134.5 -30 201.5s-49.833 127.167 -89.5 180.5s-89.167 96.5 -148.5 129.5s-128.333 49.5 -207 49.5c-80 0 -149.833 -16 -209.5 -48s-109.5 -74.833 -149.5 -128.5
s-70 -115.5 -90 -185.5s-30 -143.333 -30 -220c0 -73.333 10.833 -143.666 32.5 -210.999s53 -126.666 94 -177.999s90.5 -92.166 148.5 -122.499s123.667 -45.5 197 -45.5h2z" />
    <glyph glyph-name="P" unicode="P" horiz-adv-x="909" 
d="M146 1387c36 6.66699 76.1699 12.333 120.503 17s92.5 7 144.5 7c76 0 140.333 -9.5 193 -28.5s96 -46.5 130 -82.5c30 -30 52.5 -64.833 67.5 -104.5s22.5 -85.5 22.5 -137.5c0 -106.667 -28.667 -191.667 -86 -255c-38.667 -46 -88.334 -80 -149.001 -102
s-128.334 -33 -203.001 -33c-28.667 0 -56.334 1 -83.001 3s-51.667 7.33301 -75 16v-530h-82v1230zM228.003 765.999c23.333 -8.66699 49.167 -14.668 77.5 -18.001s58.5 -5 90.5 -5c112 0 197.833 26.833 257.5 80.5s89.5 128.5 89.5 224.5
c0 53.333 -8.83301 98.333 -26.5 135s-41.667 66.334 -72 89.001s-65.833 39 -106.5 49s-83.667 15 -129 15c-42 0 -78.5 -2 -109.5 -6s-54.833 -8 -71.5 -12v-552z" />
    <glyph glyph-name="Q" unicode="Q" horiz-adv-x="1249" 
d="M1174 -10c-84.667 19.333 -168 39.999 -250 61.999s-158.333 43.667 -229 65c-12.667 3.33301 -24.5 7.16602 -35.5 11.499s-22.833 6.5 -35.5 6.5c-78 2.66699 -151 19 -219 49s-127.333 71.833 -178 125.5s-90.667 118.5 -120 194.5s-44 161.333 -44 256
c0 99.333 14.5 189.666 43.5 270.999s69 151 120 209s111.167 102.833 180.5 134.5s144.333 47.5 225 47.5c81.333 0 156 -15.833 224 -47.5s126.5 -75.5 175.5 -131.5s87 -122.167 114 -198.5s40.5 -159.166 40.5 -248.499c0 -84 -9.83301 -160.5 -29.5 -229.5
s-47.167 -130 -82.5 -183s-77.5 -97.667 -126.5 -134s-103.167 -64.166 -162.5 -83.499v-7c36 -7.33301 72.333 -15.166 109 -23.499l108.5 -24c35.667 -7.66699 70 -14.667 103 -21s63.833 -11.5 92.5 -15.5zM620 208.999c74 0 140.667 14.667 200 44
s109.833 69.833 151.5 121.5s73.834 112.834 96.501 183.501s34 147 34 229c0 67.333 -10 134.5 -30 201.5s-49.667 127.167 -89 180.5s-88.333 96.5 -147 129.5s-126.667 49.5 -204 49.5c-80.667 0 -151.334 -16.167 -212.001 -48.5s-111.167 -75.5 -151.5 -129.5
s-70.5 -116.333 -90.5 -187s-30 -144.334 -30 -221.001c0 -73.333 11 -143.5 33 -210.5s53.333 -125.833 94 -176.5s90 -91 148 -121s123.333 -45 196 -45h1z" />
    <glyph glyph-name="R" unicode="R" horiz-adv-x="911" 
d="M146 1383c18.667 4.66699 39.167 8.83496 61.5 12.502s45.5 6.66699 69.5 9s48.167 4 72.5 5s47.166 1.5 68.499 1.5c80 0 146 -9.33301 198 -28s95 -46.334 129 -83.001c24 -24.667 43.167 -56.334 57.5 -95.001s21.5 -79.334 21.5 -122.001
c0 -41.333 -5.66699 -79.166 -17 -113.499s-27.166 -65 -47.499 -92s-44.5 -50.333 -72.5 -70s-59 -35.5 -93 -47.5v-3c45.333 -17.333 82.833 -48.333 112.5 -93s51.167 -98 64.5 -160l29 -129.5l23.5 -97c7 -27.667 13.667 -51.167 20 -70.5s12.5 -36 18.5 -50h-86
c-9.33301 18 -20.333 52.833 -33 104.5s-26.667 116.5 -42 194.5c-17.333 88.667 -46.5 155 -87.5 199s-98.833 68 -173.5 72h-212v-570h-82v1226zM228 801.001h215c46 0 87.5 6.5 124.5 19.5s68.5 31.167 94.5 54.5s46 51.333 60 84s21 69 21 109
c0 50 -8.66699 92.167 -26 126.5s-40.666 62 -69.999 83s-63.833 36.167 -103.5 45.5s-81.834 14 -126.501 14c-46.667 0 -86 -2.16699 -118 -6.5s-55.667 -8.83301 -71 -13.5v-516z" />
    <glyph glyph-name="S" unicode="S" horiz-adv-x="838" 
d="M108 303c36.667 -28 78.3379 -50.332 125.005 -66.999s97 -25 151 -25c45.333 0 86.166 6.33301 122.499 19s67 30.5 92 53.5s44.167 50.333 57.5 82s20 66.834 20 105.501c0 35.333 -4.5 67.166 -13.5 95.499s-23.5 54 -43.5 77s-46 44 -78 63s-71.333 36.833 -118 53.5
c-56 20 -104 41.5 -144 64.5s-72.5 48.333 -97.5 76s-43.333 58.167 -55 91.5s-17.5 70.333 -17.5 111c0 45.333 8.33301 87.5 25 126.5s40.334 72.667 71.001 101s67.334 50.666 110.001 66.999s89.667 24.5 141 24.5c60 0 111 -6.66699 153 -20s74 -27.666 96 -42.999
l-32 -76c-8 6 -18.833 12.833 -32.5 20.5s-29.834 14.834 -48.501 21.501s-39.667 12.167 -63 16.5s-48.666 6.5 -75.999 6.5c-50.667 0 -92.834 -7.5 -126.501 -22.5s-60.667 -33.833 -81 -56.5s-34.833 -47.667 -43.5 -75s-13 -53.333 -13 -78
c0 -33.333 4.66699 -63.166 14 -89.499s24.166 -50.333 44.499 -72s46.333 -41.5 78 -59.5s70.167 -35.333 115.5 -52c50.667 -18.667 95.667 -38.667 135 -60s72.166 -46 98.499 -74s46.333 -60.5 60 -97.5s20.5 -80.833 20.5 -131.5c0 -43.333 -7.33301 -85.5 -22 -126.5
s-37.334 -77.833 -68.001 -110.5s-70 -58.834 -118 -78.501s-105.333 -29.5 -172 -29.5c-26 0 -53 2.16699 -81 6.5s-55.333 10.666 -82 18.999s-51.834 18.166 -75.501 29.499s-43.834 24 -60.501 38z" />
    <glyph glyph-name="T" unicode="T" horiz-adv-x="846" 
d="M383 1324h-416v75h913v-75h-416v-1167h-81v1167z" />
    <glyph glyph-name="U" unicode="U" horiz-adv-x="1146" 
d="M228 1399l-0.00195312 -715.999c0 -84.667 8.83301 -156.834 26.5 -216.501s41.667 -108.5 72 -146.5s65.833 -65.667 106.5 -83s84 -26 130 -26c52 0 99.833 9.16699 143.5 27.5s81.334 46.666 113.001 84.999s56.167 87.333 73.5 147s26 130.5 26 212.5v716h81v-709
c0 -100 -11.833 -185.167 -35.5 -255.5s-55.667 -127.666 -96 -171.999s-87.166 -76.666 -140.499 -96.999s-109.666 -30.5 -168.999 -30.5c-54.667 0 -106.834 9.5 -156.501 28.5s-93.5 50 -131.5 93s-68.333 99.167 -91 168.5s-34 154.666 -34 255.999v718h82z" />
    <glyph glyph-name="V" unicode="V" horiz-adv-x="904" 
d="M394 157l-406.999 1242h86l220 -683l82.5 -257c24.333 -75.333 45.166 -145.333 62.499 -210h3c19.333 66.667 42.833 138 70.5 214l90.5 251l249 685h88l-465 -1242h-80z" />
    <glyph glyph-name="W" unicode="W" horiz-adv-x="1462" 
d="M336 157l-316.999 1242h82l178 -712l55.5 -229c18.333 -72 33.5 -134.667 45.5 -188h3c10.667 51.333 26.167 113 46.5 185l66.5 232l205 712h80l181 -711l28 -113.5l27 -111.5c8.66699 -36 16.5 -70.5 23.5 -103.5s12.833 -62.833 17.5 -89.5h4
c12.667 58.667 28.667 121.667 48 189l64 226l207 714h83l-369 -1242h-80l-181 712l-33.5 133l-26 111.5c-7.66699 34.333 -14.334 66.333 -20.001 96s-10.5 58.167 -14.5 85.5h-4c-4.66699 -27.333 -10.5 -55.5 -17.5 -84.5s-15.167 -60.5 -24.5 -94.5l-31.5 -110.5
l-38.5 -132.5l-209 -716h-79z" />
    <glyph glyph-name="X" unicode="X" horiz-adv-x="995" 
d="M846 157l-186 294.001l-56 89.5l-45.5 71.5l-37 59l-31.5 53h-4l-29 -53l-34 -59l-43.5 -71.5l-56.5 -91.5l-174 -292h-96l392 629l-376 613h97l199 -334l72.5 -121.5l56.5 -96.5h4c18 31.333 37.667 63.666 59 96.999l75 119l212 336h98l-401 -607l401 -635h-96z" />
    <glyph glyph-name="Y" unicode="Y" horiz-adv-x="897" 
d="M411 157v530.999l-391 711h92l207 -387l74.5 -133.5c21.667 -40.333 42.5 -82.166 62.5 -125.499h3c18.667 40 39.5 81.167 62.5 123.5l76.5 135.5l218 387h93l-417 -714v-528h-81z" />
    <glyph glyph-name="Z" unicode="Z" horiz-adv-x="1003" 
d="M61 219l765 1099v6h-701v75h809v-62l-767 -1099v-5h778v-76h-884v62z" />
    <glyph glyph-name="bracketleft" unicode="[" horiz-adv-x="553" 
d="M184 -330v1880h379v-78h-287v-1725h287v-77h-379z" />
    <glyph glyph-name="backslash" unicode="\" horiz-adv-x="532" 
d="M434 150l-432 1362h104l426 -1362h-98z" />
    <glyph glyph-name="bracketright" unicode="]" horiz-adv-x="553" 
d="M369 1550v-1880h-379v77h286v1725h-286v78h379z" />
    <glyph glyph-name="asciicircum" unicode="^" horiz-adv-x="1221" 
d="M981 576l-369 838h-4l-368 -838h-97l420 930h94l420 -930h-96z" />
    <glyph glyph-name="underscore" unicode="_" horiz-adv-x="1024" 
d="M1024 21v-102h-1024v102h1024z" />
    <glyph glyph-name="grave" unicode="`" horiz-adv-x="614" 
d="M211 1592l186 -287h-78l-260 287h152z" />
    <glyph glyph-name="a" unicode="a" horiz-adv-x="823" 
d="M690 372c0 -36 0.841797 -71.832 2.50879 -107.499s5.16699 -71.5 10.5 -107.5h-75l-12 137h-4c-10 -17.333 -23.833 -35.333 -41.5 -54s-38.834 -35.834 -63.501 -51.501s-52.334 -28.5 -83.001 -38.5s-64.334 -15 -101.001 -15c-45.333 0 -84 7.66699 -116 23
s-58.333 35 -79 59s-35.667 50.333 -45 79s-14 56.334 -14 83.001c0 49.333 10.333 94.166 31 134.499s52.5 74.666 95.5 102.999s97.333 50.166 163 65.499s143.5 23 233.5 23h17v20c0 11.333 -0.666992 25.833 -2 43.5s-4.5 36.167 -9.5 55.5s-12.333 38.833 -22 58.5
s-22.834 37.334 -39.501 53.001s-37.5 28.5 -62.5 38.5s-55.167 15 -90.5 15c-40 0 -79.667 -5.83301 -119 -17.5s-76 -30.5 -110 -56.5l-26 64c43.333 32.667 88.166 55.167 134.499 67.5s88.833 18.5 127.5 18.5c44.667 0 83.167 -6 115.5 -18
s59.666 -27.833 81.999 -47.5s40.166 -42.5 53.499 -68.5s23.666 -52.833 30.999 -80.5s12.166 -55.167 14.499 -82.5s3.5 -52.666 3.5 -75.999v-320zM609.009 629.001c-8 0 -15.8359 0.165039 -23.5029 0.498047s-15.5 0.5 -23.5 0.5
c-49.333 0 -98.166 -3.33301 -146.499 -10s-91.666 -18.834 -129.999 -36.501s-69.333 -41.667 -93 -72s-35.5 -69.166 -35.5 -116.499c0 -31.333 4.66699 -58.666 14 -81.999s22 -42.666 38 -57.999s34.333 -26.833 55 -34.5s42.667 -11.5 66 -11.5
c38.667 0 72.834 5.66699 102.501 17s55.5 25.833 77.5 43.5s40.167 37.167 54.5 58.5s25.5 42 33.5 62c4 9.33301 6.83301 18.333 8.5 27s2.5 16.667 2.5 24v188z" />
    <glyph glyph-name="b" unicode="b" horiz-adv-x="1016" 
d="M146 1477l82 0.00195312v-618h2c14 29.333 31.333 56.666 52 81.999s44.834 47.166 72.501 65.499s58.667 32.666 93 42.999s72.5 15.5 114.5 15.5c58.667 0 111.5 -12 158.5 -36s87.167 -56.5 120.5 -97.5s59 -89 77 -144s27 -113.167 27 -174.5
c0 -78 -11.333 -146.833 -34 -206.5s-52.5 -109.667 -89.5 -150s-79.333 -70.666 -127 -90.999s-96.167 -30.5 -145.5 -30.5c-70 0 -132.333 14.833 -187 44.5s-101.334 79.167 -140.001 148.5h-8v-171h-75c3.33301 36 5.33301 71.833 6 107.5s1 71.5 1 107.5v1105z
M228 509.002c0 -10.667 0.499023 -21.832 1.49902 -33.499s3.16699 -23.167 6.5 -34.5c8 -30.667 21 -60 39 -88s40 -52.667 66 -74s55.5 -38.333 88.5 -51s68.5 -19 106.5 -19c50 0 95.333 9.5 136 28.5s75.167 46 103.5 81s50.166 77 65.499 126s23 103.833 23 164.5
c0 51.333 -7.33301 100.166 -22 146.499s-35.667 87 -63 122s-60.666 62.667 -99.999 83s-83.666 30.5 -132.999 30.5c-32.667 0 -64.834 -5.16699 -96.501 -15.5s-61.167 -25.833 -88.5 -46.5s-51.5 -46.5 -72.5 -77.5s-37.167 -67.167 -48.5 -108.5
c-3.33301 -10.667 -6.16602 -22.5 -8.49902 -35.5s-3.5 -28.167 -3.5 -45.5v-153z" />
    <glyph glyph-name="c" unicode="c" horiz-adv-x="826" 
d="M760 200c-8.66699 -4.66699 -21.1699 -10.667 -37.5029 -18s-35.833 -14.5 -58.5 -21.5s-48.5 -13 -77.5 -18s-60.5 -7.5 -94.5 -7.5c-63.333 0 -121 11.5 -173 34.5s-96.333 54.833 -133 95.5s-65 88.5 -85 143.5s-30 114.5 -30 178.5c0 74 11.667 140.5 35 199.5
s55.333 109.167 96 150.5s88.5 73 143.5 95s114.5 33 178.5 33c29.333 0 57 -2 83 -6s49.333 -9.16699 70 -15.5s38.667 -13.166 54 -20.499s27 -14.333 35 -21l-30 -74c-23.333 15.333 -52.666 29 -87.999 41s-79 18 -131 18c-59.333 0 -111.666 -10.167 -156.999 -30.5
s-83.333 -48 -114 -83s-54 -76.167 -70 -123.5s-24 -98 -24 -152c0 -58 8.83301 -110.667 26.5 -158s42.334 -87.833 74.001 -121.5s69 -59.834 112 -78.501s89.833 -28 140.5 -28c28 0 53.667 2.16699 77 6.5s44.5 9.5 63.5 15.5s36 12.5 51 19.5l39.5 18.5z" />
    <glyph glyph-name="d" unicode="d" horiz-adv-x="999" 
d="M853 1477l-0.00390625 -1105c0 -36 0.333008 -71.833 1 -107.5s2.33398 -71.5 5.00098 -107.5h-79v185h-4c-11.333 -28 -26.666 -54.5 -45.999 -79.5s-42.5 -47 -69.5 -66s-57.833 -34 -92.5 -45s-72.667 -16.5 -114 -16.5c-56 0 -107.5 11.667 -154.5 35
s-87.333 55.166 -121 95.499s-60 87.5 -79 141.5s-28.5 111.667 -28.5 173v7c0 70.667 10.5 135.334 31.5 194.001s49.667 109 86 151s79 74.667 128 98s101.167 35 156.5 35c40.667 0 77.334 -5.5 110.001 -16.5s61.334 -24.833 86.001 -41.5s45.167 -35 61.5 -55
s28.833 -39 37.5 -57h3v582h82zM770.996 687c0 12.667 -0.834961 26.832 -2.50195 42.499s-4.16699 30.167 -7.5 43.5c-8.66699 30 -21.5 58.167 -38.5 84.5s-37.667 49.5 -62 69.5s-52.166 35.667 -83.499 47s-65.666 17 -102.999 17
c-47.333 0 -90.666 -9.66699 -129.999 -29s-73.333 -46.5 -102 -81.5s-50.834 -77.167 -66.501 -126.5s-23.5 -104 -23.5 -164c0 -50 6.5 -97.833 19.5 -143.5s32.833 -86.167 59.5 -121.5s60.167 -63.5 100.5 -84.5s87.5 -31.5 141.5 -31.5c34 0 66.5 6.16699 97.5 18.5
s59.333 29.333 85 51s47.667 47.334 66 77.001s31.5 62.167 39.5 97.5c6.66699 22 10 47.667 10 77v157z" />
    <glyph glyph-name="e" unicode="e" horiz-adv-x="891" 
d="M150 600c0 -64.667 8.66699 -121.168 26 -169.501s41.333 -88.666 72 -120.999s66.5 -56.666 107.5 -72.999s85.167 -24.5 132.5 -24.5c34 0 64.167 1.66699 90.5 5s49.5 7.66602 69.5 12.999s37.667 11.333 53 18s29.333 13.334 42 20.001l22 -72l-33.5 -15.5
c-15 -7 -34.167 -13.833 -57.5 -20.5s-51 -12.5 -83 -17.5s-69 -7.5 -111 -7.5c-62 0 -118.167 11 -168.5 33s-93.333 52.833 -129 92.5s-63.167 86.5 -82.5 140.5s-29 113 -29 177c0 74.667 10.167 142.167 30.5 202.5s48.333 111.5 84 153.5s77.834 74.333 126.501 97
s101.334 34 158.001 34c49.333 0 92 -7.33301 128 -22s66.833 -33.834 92.5 -57.501s46.667 -50.5 63 -80.5s29.166 -60.167 38.499 -90.5s15.666 -59.5 18.999 -87.5s5 -52 5 -72v-32.5c0 -7.66699 -0.666992 -15.167 -2 -22.5h-664zM732 670.999
c0 15.333 -1.16602 34.002 -3.49902 56.002s-6.83301 44.833 -13.5 68.5s-16.334 47.167 -29.001 70.5s-29 44.333 -49 63s-44.667 33.667 -74 45s-64 17 -104 17c-50.667 0 -94.167 -10.333 -130.5 -31s-66.5 -46.834 -90.5 -78.501s-42.5 -66.334 -55.5 -104.001
s-21.5 -73.167 -25.5 -106.5h575z" />
    <glyph glyph-name="f" unicode="f" horiz-adv-x="473" 
d="M146 157l-0.000976562 813h-121v72h121v42c0 76.667 7.5 142.834 22.5 198.501s39.5 101.5 73.5 137.5c25.333 25.333 53.833 44.833 85.5 58.5s66.167 20.5 103.5 20.5c29.333 0 55.333 -3.33301 78 -10s40.334 -14.334 53.001 -23.001l-26 -70
c-12.667 7.33301 -27.5 13.833 -44.5 19.5s-39.167 8.5 -66.5 8.5c-40.667 0 -73.834 -9.16699 -99.501 -27.5s-45.667 -43 -60 -74s-24.166 -67 -29.499 -108s-8 -83.833 -8 -128.5v-44h233v-72h-233v-813h-82z" />
    <glyph glyph-name="g" unicode="g" horiz-adv-x="999" 
d="M853 288c0 -54 -3 -102.331 -9 -144.998s-14.333 -80.667 -25 -114s-23.5 -62.5 -38.5 -87.5s-31.833 -46.833 -50.5 -65.5c-20.667 -21.333 -43.334 -38.833 -68.001 -52.5s-50.167 -24.834 -76.5 -33.501s-52.666 -14.667 -78.999 -18s-51.5 -5 -75.5 -5
c-24.667 0 -50.167 1.83301 -76.5 5.5s-52 9 -77 16s-48.667 16 -71 27s-41.833 23.5 -58.5 37.5l29 72c32.667 -23.333 70.834 -43.166 114.501 -59.499s94.834 -24.5 153.501 -24.5c47.333 0 91 7 131 21s74.5 36 103.5 66s51.5 68.833 67.5 116.5s24 105.167 24 172.5
v129h-3c-11.333 -24 -26.5 -47.333 -45.5 -70s-41.667 -42.834 -68 -60.501s-56.5 -31.834 -90.5 -42.501s-71.667 -16 -113 -16c-56.667 0 -108.334 12 -155.001 36s-86.667 56 -120 96s-59.166 86 -77.499 138s-27.5 106 -27.5 162c0 74 11.167 140.5 33.5 199.5
s52.166 109 89.499 150s79.833 72.333 127.5 94s97.167 32.5 148.5 32.5c44 0 82.833 -5.83301 116.5 -17.5s63 -26.5 88 -44.5s45.833 -38 62.5 -60s29.667 -43.667 39 -65h9v164h74c-2.66699 -36 -4.33398 -71.667 -5.00098 -107s-1 -71 -1 -107v-540zM771 687.002
c0 17.333 -0.668945 33.498 -2.00195 48.498s-4.33301 29.167 -9 42.5c-10 29.333 -23.5 57 -40.5 83s-37.5 48.667 -61.5 68s-51 34.5 -81 45.5s-63 16.5 -99 16.5c-48 0 -91.833 -9.33301 -131.5 -28s-74 -45.167 -103 -79.5s-51.5 -75.5 -67.5 -123.5
s-24 -101.333 -24 -160c0 -44 6.33301 -88 19 -132s32.167 -83.5 58.5 -118.5s59.833 -63.5 100.5 -85.5s88.667 -33 144 -33c32 0 62.5 5.33301 91.5 16s55.833 25.334 80.5 44.001s46.334 41 65.001 67s33.334 54.333 44.001 85c5.33301 14 9.33301 29.333 12 46
s4 33.334 4 50.001v148z" />
    <glyph glyph-name="h" unicode="h" horiz-adv-x="980" 
d="M146 1477h81.999v-614h2c13.333 28.667 30.166 55.5 50.499 80.5s44.5 46.167 72.5 63.5c26 17.333 54.167 31.333 84.5 42s61.833 16 94.5 16c12.667 0 29.167 -1.5 49.5 -4.5s42 -9.16699 65 -18.5s46.167 -23 69.5 -41s44.333 -42 63 -72
s33.834 -66.833 45.501 -110.5s17.5 -95.834 17.5 -156.501v-505h-81v502c0 42.667 -4.33301 83.667 -13 123s-23 74 -43 104s-45.833 54 -77.5 72s-70.5 27 -116.5 27c-32 0 -62.167 -5.66699 -90.5 -17s-54.333 -26.666 -78 -45.999s-44.167 -41.5 -61.5 -66.5
s-31 -51.167 -41 -78.5c-5.33301 -14 -8.66602 -28 -9.99902 -42s-2 -31.333 -2 -52v-526h-82v1320z" />
    <glyph glyph-name="i" unicode="i" horiz-adv-x="373" 
d="M146 157v885h82v-885h-82zM184 1225c-19.333 0 -35.001 8.16699 -47.001 24.5s-18 34.5 -18 54.5c0 20.667 6.5 39 19.5 55s29.167 24 48.5 24s35.333 -7.83301 48 -23.5s19 -34.167 19 -55.5c0 -20 -6.16699 -38.167 -18.5 -54.5s-29.166 -24.5 -50.499 -24.5h-1z" />
    <glyph glyph-name="j" unicode="j" horiz-adv-x="382" 
d="M-96 -159c82.667 2 144.002 26 184.002 72c11.333 14 21.166 29.667 29.499 47s15.166 39.833 20.499 67.5s9.33301 62.334 12 104.001s4 93.834 4 156.501v754h82v-820c0 -76.667 -6.16699 -144.334 -18.5 -203.001s-36.833 -110.334 -73.5 -155.001
c-15.333 -18.667 -33.5 -34.167 -54.5 -46.5s-42.333 -22.333 -64 -30s-42.5 -13 -62.5 -16s-37 -4.5 -51 -4.5zM193.002 1225c-20.667 0 -36.667 8.16699 -48 24.5s-17 34.5 -17 54.5c0 20.667 6.5 39 19.5 55s29.833 24 50.5 24c19.333 0 35 -8 47 -24s18 -34.333 18 -55
c0 -20 -6 -38.167 -18 -54.5s-29 -24.5 -51 -24.5h-1z" />
    <glyph glyph-name="k" unicode="k" horiz-adv-x="760" 
d="M228 616h2c11.333 14.667 25.333 31.5 42 50.5l47 51.5l309 324h104l-356 -364l407 -521h-101l-363 468l-91 -97v-371h-82v1320h82v-861z" />
    <glyph glyph-name="l" unicode="l" horiz-adv-x="373" 
d="M146 1477h82v-1320h-82v1320z" />
    <glyph glyph-name="m" unicode="m" horiz-adv-x="1488" 
d="M146 828c0 36 -0.332031 71.6611 -0.999023 106.994s-2.66699 71 -6 107h83v-171h4c14 27.333 30 52.833 48 76.5s38.5 44.167 61.5 61.5s49.167 31 78.5 41s62.333 15 99 15c31.333 0 60.333 -5.66699 87 -17s50.667 -26.666 72 -45.999s39.666 -41.833 54.999 -67.5
s27.333 -52.5 36 -80.5h3c11.333 27.333 24.333 51.166 39 71.499s29.667 37.5 45 51.5c14 14 28.5 26.333 43.5 37s31.167 19.834 48.5 27.501s36.166 13.5 56.499 17.5s42.833 6 67.5 6c12.667 0 28.5 -1.66699 47.5 -5s39 -10.166 60 -20.499
s42.167 -24.666 63.5 -42.999s40.5 -42.833 57.5 -73.5s30.833 -68.167 41.5 -112.5s16 -97.166 16 -158.499v-495h-81v493c0 112 -20.5 196.167 -61.5 252.5s-97.833 84.5 -170.5 84.5c-28 0 -54.333 -5.16699 -79 -15.5s-47 -23.833 -67 -40.5s-37.5 -35.667 -52.5 -57
s-26.833 -43.333 -35.5 -66c-4 -12 -7.66699 -25.167 -11 -39.5s-5 -29.833 -5 -46.5v-565h-81v539c0 43.333 -5.16699 82.833 -15.5 118.5s-25 66.334 -44 92.001s-41.833 45.5 -68.5 59.5s-56.667 21 -90 21c-30 0 -58.333 -6.16699 -85 -18.5
s-50.667 -28.166 -72 -47.499s-39.666 -41.166 -54.999 -65.499s-27.333 -48.833 -36 -73.5c-9.33301 -24.667 -14 -53.334 -14 -86.001v-539h-82v671z" />
    <glyph glyph-name="n" unicode="n" horiz-adv-x="980" 
d="M146 828c0 36 -0.333984 71.667 -1.00098 107s-2.66699 71 -6 107h83v-177h4c12 27.333 27.833 53.166 47.5 77.499s42.5 45.5 68.5 63.5s55 32.333 87 43s66.333 16 103 16c12 0 28.167 -1.5 48.5 -4.5s42 -9.16699 65 -18.5s46.167 -23 69.5 -41s44.333 -42 63 -72
s34 -66.833 46 -110.5s18 -96.167 18 -157.5v-504h-81v504c0 43.333 -4.5 84.666 -13.5 123.999s-23.5 74 -43.5 104s-45.833 53.833 -77.5 71.5s-70.167 26.5 -115.5 26.5c-32 0 -62.333 -5.66699 -91 -17s-54.834 -26.666 -78.501 -45.999s-44.167 -41.666 -61.5 -66.999
s-30.666 -52 -39.999 -80c-3.33301 -10.667 -6.16602 -23.167 -8.49902 -37.5s-3.5 -28.5 -3.5 -42.5v-540h-82v671z" />
    <glyph glyph-name="o" unicode="o" horiz-adv-x="980" 
d="M481 135c-59.333 0 -113.999 11.3311 -163.999 33.998s-93.167 54.334 -129.5 95.001s-64.833 88.834 -85.5 144.501s-31 116.167 -31 181.5c0 74 11.5 140.333 34.5 199s53.833 108.5 92.5 149.5s83.5 72.333 134.5 94s104.167 32.5 159.5 32.5
c64 0 121.833 -11.833 173.5 -35.5s95.5 -56 131.5 -97s63.667 -89.167 83 -144.5s29 -114.333 29 -177c0 -83.333 -13.167 -154.833 -39.5 -214.5s-60 -109 -101 -148s-86.833 -67.667 -137.5 -86s-100.334 -27.5 -149.001 -27.5h-1zM486.001 208.998
c44 0 86.4971 8.66699 127.497 26s77.333 42.833 109 76.5s57.167 75.167 76.5 124.5s29 106 29 170c0 42 -6.5 85.667 -19.5 131s-33.167 86.833 -60.5 124.5s-62.166 68.667 -104.499 93s-92.833 36.5 -151.5 36.5c-56 0 -105.333 -11 -148 -33
s-78.167 -51.167 -106.5 -87.5s-49.666 -78.333 -63.999 -126s-21.5 -97.167 -21.5 -148.5c0 -62 9.33301 -117 28 -165s43.334 -88.5 74.001 -121.5s66 -58 106 -75s81.333 -25.5 124 -25.5h2z" />
    <glyph glyph-name="p" unicode="p" horiz-adv-x="1016" 
d="M146 757c0 48 -0.333008 95.499 -1 142.499s-2.66699 94.5 -6 142.5h84v-184h5c14.667 30 32.5 57.5 53.5 82.5s45.333 46.833 73 65.5s58.834 33.167 93.501 43.5s72.667 15.5 114 15.5c58.667 0 111.5 -12 158.5 -36s87.167 -56.333 120.5 -97s59 -88.167 77 -142.5
s27 -111.5 27 -171.5c0 -77.333 -10.833 -146 -32.5 -206s-50.834 -110.5 -87.501 -151.5s-79.334 -72.167 -128.001 -93.5s-100 -32 -154 -32c-31.333 0 -62.166 3.66699 -92.499 11s-59 18.5 -86 33.5s-52 33.833 -75 56.5s-42.833 49.334 -59.5 80.001h-2v-528h-82v969z
M228 512.999c0 -12 0.500977 -23.8369 1.50098 -35.5039s3.16699 -23.167 6.5 -34.5c8 -31.333 21.167 -61.166 39.5 -89.499s40.5 -53.166 66.5 -74.499s55.5 -38.333 88.5 -51s68.167 -19 105.5 -19c50 0 95.333 9.5 136 28.5s75.167 46.167 103.5 81.5
s50.166 78 65.499 128s23 106 23 168c0 50 -7.33301 97.667 -22 143s-35.667 85.333 -63 120s-60.666 62.167 -99.999 82.5s-83.666 30.5 -132.999 30.5c-33.333 0 -65.833 -5.16699 -97.5 -15.5s-60.834 -25.666 -87.501 -45.999s-50.334 -45.666 -71.001 -75.999
s-36.667 -65.833 -48 -106.5c-3.33301 -12 -6.5 -24.833 -9.5 -38.5s-4.5 -26.5 -4.5 -38.5v-157z" />
    <glyph glyph-name="q" unicode="q" horiz-adv-x="995" 
d="M771 327h-2.99707c-11.333 -24.667 -26.333 -48.5 -45 -71.5s-41.167 -43.5 -67.5 -61.5s-56.5 -32.333 -90.5 -43s-71.333 -16 -112 -16c-56 0 -107.333 11.833 -154 35.5s-86.834 55.667 -120.501 96s-60 87.5 -79 141.5s-28.5 111.333 -28.5 172
c0 87.333 12.667 161.666 38 222.999s57.833 111.5 97.5 150.5s83.667 67.333 132 85s95.5 26.5 141.5 26.5c42 0 79.333 -5.83301 112 -17.5s61.167 -26.667 85.5 -45s44.666 -38.666 60.999 -60.999s28.833 -43.833 37.5 -64.5h9v165h74
c-2.66699 -36 -4.33398 -71.667 -5.00098 -107s-1 -71 -1 -107v-1040h-82v539zM771.003 688c0 33.333 -3.33008 62.334 -9.99707 87.001c-8.66699 28.667 -21.5 56 -38.5 82s-37.5 49 -61.5 69s-51.5 35.833 -82.5 47.5s-65.167 17.5 -102.5 17.5
c-47.333 0 -90.833 -9.33301 -130.5 -28s-73.834 -45.334 -102.501 -80.001s-51 -76.667 -67 -126s-24 -104.333 -24 -165c0 -48 6.16699 -95 18.5 -141s31.5 -87 57.5 -123s59 -64.833 99 -86.5s87.667 -32.5 143 -32.5c32 0 62.667 5.16699 92 15.5
s56.166 24.833 80.499 43.5s46 41 65 67s34.167 54.667 45.5 86c5.33301 13.333 9.66602 27.833 12.999 43.5s5 30.5 5 44.5v179z" />
    <glyph glyph-name="r" unicode="r" horiz-adv-x="530" 
d="M146 757c0 48 -0.333984 95.5 -1.00098 142.5s-2.66699 94.5 -6 142.5h78v-192h5c10 30.667 22.833 59.167 38.5 85.5s33.834 49.166 54.501 68.499s43.5 34.333 68.5 45s52.167 16 81.5 16c15.333 0 28.666 -2.33301 39.999 -7v-82
c-7.33301 1.33301 -14.833 2.16602 -22.5 2.49902s-16.167 0.5 -25.5 0.5c-27.333 0 -53 -6.16699 -77 -18.5s-45.667 -29.666 -65 -51.999s-35.666 -49.166 -48.999 -80.499s-23.333 -66 -30 -104c-3.33301 -13.333 -5.5 -27.5 -6.5 -42.5s-1.5 -30.167 -1.5 -45.5v-479
h-82v600z" />
    <glyph glyph-name="s" unicode="s" horiz-adv-x="677" 
d="M112 277c24.667 -16.667 54 -31.835 88 -45.502s71 -20.5 111 -20.5c34.667 0 64.834 4.66699 90.501 14s46.667 21.833 63 37.5s28.5 33.834 36.5 54.501s12 42.334 12 65.001c0 26 -4 48.833 -12 68.5s-19.833 37.334 -35.5 53.001s-35.167 29.5 -58.5 41.5
s-50.666 23.667 -81.999 35c-72.667 25.333 -126.834 58.333 -162.501 99s-53.5 87.334 -53.5 140.001c0 31.333 5.66699 61.666 17 90.999s28 55.5 50 78.5s49.333 41.5 82 55.5s70.667 21 114 21c38.667 0 74.334 -5.66699 107.001 -17s60.667 -25.666 84 -42.999l-31 -74
c-6 5.33301 -14.333 11.333 -25 18s-23.334 13 -38.001 19s-31.5 11 -50.5 15s-39.833 6 -62.5 6c-27.333 0 -51.333 -4.33301 -72 -13s-38 -20.334 -52 -35.001s-24.667 -31.5 -32 -50.5s-11 -38.833 -11 -59.5c0 -25.333 4.16699 -47 12.5 -65s20.333 -34 36 -48
s35 -26.5 58 -37.5s49.5 -21.833 79.5 -32.5c36.667 -14 68.5 -29 95.5 -45s49.5 -34.333 67.5 -55s31.5 -43.834 40.5 -69.501s13.5 -55.167 13.5 -88.5c0 -36 -6.5 -69.5 -19.5 -100.5s-31.667 -58 -56 -81s-54.333 -41 -90 -54s-76.167 -19.5 -121.5 -19.5
c-42.667 0 -82.834 6 -120.501 18s-71.5 27.667 -101.5 47z" />
    <glyph glyph-name="t" unicode="t" horiz-adv-x="562" 
d="M261 1237v-195h252v-72h-252v-566c0 -27.333 2 -52.666 6 -75.999s10.833 -43.5 20.5 -60.5s22.667 -30.5 39 -40.5s36.833 -15 61.5 -15c24 0 44.5 1.66699 61.5 5s31.167 7.33301 42.5 12l11 -70c-14.667 -6.66699 -32 -12.334 -52 -17.001s-43.667 -7 -71 -7
c-32 0 -60.5 5.5 -85.5 16.5s-45.833 27.833 -62.5 50.5c-19.333 25.333 -33 56.833 -41 94.5s-12 77.5 -12 119.5v554h-146v72h146v168z" />
    <glyph glyph-name="u" unicode="u" horiz-adv-x="972" 
d="M826 372c0 -36 0.334961 -71.834 1.00195 -107.501s2.33398 -71.5 5.00098 -107.5h-81v180h-2c-12.667 -24.667 -28.334 -49.167 -47.001 -73.5s-40.834 -46 -66.501 -65s-55 -34.333 -88 -46s-69.5 -17.5 -109.5 -17.5c-15.333 0 -33.333 1.5 -54 4.5
s-42.167 9.33301 -64.5 19s-44.333 23.5 -66 41.5s-41 42.167 -58 72.5s-30.833 67.833 -41.5 112.5s-16 98.334 -16 161.001v496h81v-477c0 -52 4.16699 -99.5 12.5 -142.5s22 -80 41 -111s43.833 -55 74.5 -72s68 -25.5 112 -25.5c30 0 58.833 5 86.5 15s53 23.5 76 40.5
s43.167 36.833 60.5 59.5s31.333 47 42 73c5.33301 14 10.166 30 14.499 48s6.5 36.667 6.5 56v536h81v-670z" />
    <glyph glyph-name="v" unicode="v" horiz-adv-x="823" 
d="M111 1042l208.001 -545l49.5 -134.5l40.5 -116.5h4c13.333 39.333 28.166 79 44.499 119l51.5 132l213 545h85l-362 -885h-73l-349 885h88z" />
    <glyph glyph-name="w" unicode="w" horiz-adv-x="1300" 
d="M125 1042l146 -516l39.5 -146l33.5 -127h2c11.333 40 24.5 82 39.5 126l49.5 147l177 516h81l169 -514c18.667 -56 34.667 -106.333 48 -151l37 -124h4c9.33301 40 20.333 82 33 126s27.667 93 45 147l158 516h84l-289 -885h-73l-162 489l-53 162
c-16 51.333 -30 102.333 -42 153h-3c-13.333 -52 -28.5 -104.167 -45.5 -156.5l-54.5 -160.5l-174 -487h-73l-262 885h85z" />
    <glyph glyph-name="x" unicode="x" horiz-adv-x="780" 
d="M130 1042l152 -218.001l52 -75c16 -22.667 32.333 -47.334 49 -74.001h3c16.667 26.667 33.5 51.834 50.5 75.501l53.5 73.5l153 218h90l-306 -429l322 -456h-96l-159 225l-58 86l-54 82h-4c-16.667 -29.333 -34 -56.666 -52 -81.999l-59 -86l-156 -225h-95l324 454
l-304 431h94z" />
    <glyph glyph-name="y" unicode="y" horiz-adv-x="796" 
d="M103 1042l237.001 -591c12 -29.333 24 -60.833 36 -94.5s21.667 -64.167 29 -91.5h4l29.5 90c10.333 32.667 22.166 67 35.499 103l223 584h88l-282 -715l-77 -185c-23.333 -53.333 -46.333 -100 -69 -140s-45.334 -74.333 -68.001 -103s-47.334 -53.667 -74.001 -75
c-16.667 -14 -33 -25.833 -49 -35.5s-30.5 -17.667 -43.5 -24s-24.167 -11.166 -33.5 -14.499s-16 -5.33301 -20 -6l-21 76c20.667 6.66699 43.834 16.834 69.501 30.501s51.167 32.167 76.5 55.5c21.333 19.333 45.833 48.166 73.5 86.499s53.834 89.166 78.501 152.499
c6.66699 15.333 10 27 10 35s-3.66699 21.333 -11 40l-331 822h89z" />
    <glyph glyph-name="z" unicode="z" horiz-adv-x="730" 
d="M27 212l476.001 624l49.5 64.5c16.333 21 34.166 42.5 53.499 64.5v3h-545v74h642v-63l-475 -623l-47 -61.5l-48 -59.5v-4h577v-74h-683v55z" />
    <glyph glyph-name="braceleft" unicode="{" horiz-adv-x="553" 
d="M45 802l12.9971 0.00488281c36.667 0 66.167 4.66699 88.5 14s39.5 21.5 51.5 36.5s19.833 32 23.5 51s5.5 38.167 5.5 57.5c0 30 -2 59.167 -6 87.5s-8.66699 57.5 -14 87.5c-6 28.667 -11.333 57 -16 85s-7 57 -7 87c0 46.667 7.83301 87.167 23.5 121.5
s37.334 62.666 65.001 84.999s60.5 38.833 98.5 49.5s79.667 16 125 16h26v-78h-39c-38 0 -70.167 -4.5 -96.5 -13.5s-47.666 -22.333 -63.999 -40s-28.166 -39.334 -35.499 -65.001s-11 -55.167 -11 -88.5c0 -26.667 2.16699 -53.334 6.5 -80.001s9.16602 -54 14.499 -82
c5.33301 -26.667 10 -53.167 14 -79.5s6 -53.5 6 -81.5c0 -24.667 -3.16699 -48 -9.5 -70s-15.333 -41.833 -27 -59.5s-25.5 -32.834 -41.5 -45.501s-33.667 -22 -53 -28v-4c19.333 -6 37 -15.667 53 -29s29.833 -29.166 41.5 -47.499s20.667 -38.666 27 -60.999
s9.5 -45.5 9.5 -69.5c0 -28 -2 -55.333 -6 -82s-8.66699 -53.334 -14 -80.001c-5.33301 -28 -10.166 -55.333 -14.499 -82s-6.5 -54 -6.5 -82c0 -139.333 69 -209 207 -209h39v-77h-26c-44 0 -85 5.16699 -123 15.5s-71 27.166 -99 50.499s-50 53.666 -66 90.999
s-24 83.333 -24 138c0 28 2.33301 55.5 7 82.5s10 53.833 16 80.5c5.33301 28 10 55.333 14 82s6 54 6 82c0 16.667 -1.83301 34.5 -5.5 53.5s-11.667 36.333 -24 52s-30 28.667 -53 39s-53.833 15.5 -92.5 15.5h-7v74z" />
    <glyph glyph-name="bar" unicode="|" horiz-adv-x="449" 
d="M268 1635v-2048h-88v2048h88z" />
    <glyph glyph-name="braceright" unicode="}" horiz-adv-x="553" 
d="M508 728l-8.00195 -0.00488281c-38 0 -68.5 -5.16699 -91.5 -15.5s-40.667 -23.333 -53 -39s-20.333 -33 -24 -52s-5.5 -36.833 -5.5 -53.5c0 -28 2.16699 -55.333 6.5 -82s9.5 -54 15.5 -82c5.33301 -26.667 10.166 -53.5 14.499 -80.5s6.5 -54.5 6.5 -82.5
c0 -54.667 -8 -100.667 -24 -138s-38 -67.666 -66 -90.999s-61 -40.166 -99 -50.499s-79 -15.5 -123 -15.5h-26v77h39c137.333 0 206 69.667 206 209c0 28 -2 55.333 -6 82s-8.66699 54 -14 82c-5.33301 26.667 -10 53.334 -14 80.001s-6 54 -6 82
c0 24 3.16699 47.167 9.5 69.5s15.166 42.666 26.499 60.999s25.166 34.166 41.499 47.499s34.166 23 53.499 29v4c-19.333 6 -37.166 15.333 -53.499 28s-30.166 27.834 -41.499 45.501s-20.166 37.5 -26.499 59.5s-9.5 45.333 -9.5 70c0 28 2 55.167 6 81.5
s8.66699 52.833 14 79.5c5.33301 28 10 55.333 14 82s6 53.334 6 80.001c0 33.333 -3.5 62.833 -10.5 88.5s-18.667 47.334 -35 65.001s-37.666 31 -63.999 40s-58.5 13.5 -96.5 13.5h-39v78h26c44.667 0 86.167 -5.33301 124.5 -16s71.333 -27.167 99 -49.5
s49.334 -50.666 65.001 -84.999s23.5 -74.833 23.5 -121.5c0 -30 -2.16699 -59 -6.5 -87s-9.16602 -56.333 -14.499 -85c-6 -30 -11.167 -59.167 -15.5 -87.5s-6.5 -57.5 -6.5 -87.5c0 -19.333 1.83301 -38.5 5.5 -57.5s11.5 -36 23.5 -51s29 -27.167 51 -36.5
s51.667 -14 89 -14h13v-74z" />
    <glyph glyph-name="asciitilde" unicode="~" horiz-adv-x="1221" 
d="M86 471c-0.666992 3.33301 -1 6.99902 -1 10.999v11c0 40 6.33301 75.667 19 107s29.667 57.833 51 79.5s45.666 38.167 72.999 49.5s55.666 17 84.999 17c20.667 0 40 -1.5 58 -4.5s38 -8.16699 60 -15.5s47.667 -17 77 -29l108 -45l80.5 -34.5
c25.667 -11 51 -20.667 76 -29s49.667 -15.166 74 -20.499s48.833 -8 73.5 -8c91.333 0 137 61.333 137 184h78c0 -4.66699 0.166992 -9 0.5 -13s0.5 -8 0.5 -12c0 -45.333 -6.66699 -83.833 -20 -115.5s-30.666 -57.5 -51.999 -77.5s-45.166 -34.5 -71.499 -43.5
s-52.833 -13.5 -79.5 -13.5c-17.333 0 -35.333 1.33301 -54 4s-40 7.5 -64 14.5s-52 16.5 -84 28.5s-69.667 27.333 -113 46l-76.5 33.5c-24.333 11 -48 21 -71 30s-45.833 16.333 -68.5 22s-45.667 8.5 -69 8.5c-48 0 -84.5 -15.667 -109.5 -47s-37.5 -77.333 -37.5 -138
h-80z" />
    <glyph glyph-name="currency" unicode="&#xa4;" horiz-adv-x="1085" 
d="M543 1003c52 0 99.333 -8.00488 142 -24.0049s78 -37.333 106 -64l145 141l63 -63l-151 -133c12 -13.333 23 -29.166 33 -47.499s18.667 -38.166 26 -59.499s13 -43.666 17 -66.999s6 -46.666 6 -69.999c0 -58.667 -8 -110.667 -24 -156s-34 -79.333 -54 -102l139 -139
l-63 -64l-137 144c-34.667 -32 -74.834 -55 -120.501 -69s-90.834 -21 -135.501 -21c-23.333 0 -46.666 1.83301 -69.999 5.5s-45.666 9 -66.999 16s-41.333 15.333 -60 25s-35 20.5 -49 32.5l-133 -133l-60 64l131 129c-12 12 -23.167 27 -33.5 45s-19.5 38 -27.5 60
s-14.167 45.167 -18.5 69.5s-6.5 48.833 -6.5 73.5c0 56.667 8.83301 107.334 26.5 152.001s40.5 82 68.5 112l-140 131l64 65l133 -141c30.667 26.667 67.5 48 110.5 64s88.833 24 137.5 24h2zM532 922.995c-48.667 0 -91.3291 -9.33203 -127.996 -27.999
s-67.5 -43.167 -92.5 -73.5s-43.833 -64.666 -56.5 -102.999s-19 -77.166 -19 -116.499c0 -58.667 10 -108 30 -148s44.833 -72.333 74.5 -97s61.667 -42.334 96 -53.001s66.166 -16 95.499 -16c33.333 0 68 5 104 15s68.833 27.5 98.5 52.5s54 58.5 73 100.5
s28.5 94.667 28.5 158c0 33.333 -5.83301 68.166 -17.5 104.499s-29.834 69.666 -54.501 99.999s-55.834 55.333 -93.501 75s-82.834 29.5 -135.501 29.5h-3z" />
    <glyph glyph-name="brokenbar" unicode="&#xa6;" horiz-adv-x="451" 
d="M276 1618v-846h-75v846h75zM276 453l-75 -842v0v842h75z" />
    <glyph glyph-name="section" unicode="&#xa7;" horiz-adv-x="1126" 
d="M786 1292c0 50 -5.33398 91.3369 -16.001 124.004s-26 58.5 -46 77.5s-44.167 32.167 -72.5 39.5s-59.833 11 -94.5 11c-4.66699 0 -13.334 -0.333008 -26.001 -1s-27.167 -2.66699 -43.5 -6s-33.333 -8.83301 -51 -16.5s-33.834 -18.167 -48.501 -31.5
s-26.667 -30.333 -36 -51s-14 -46 -14 -76c0 -36 6.16699 -65.167 18.5 -87.5s32.166 -42.333 59.499 -60s63.166 -35.5 107.499 -53.5l162.5 -68c50 -21.333 95.333 -43.333 136 -66s75.5 -48.334 104.5 -77.001s51.5 -61.667 67.5 -99s24 -81.333 24 -132
c0 -55.333 -9.16699 -103.166 -27.5 -143.499s-41.333 -74.166 -69 -101.499s-57.5 -49.166 -89.5 -65.499s-61.667 -28.5 -89 -36.5c30.667 -14.667 55.834 -31 75.501 -49s35 -37 46 -57s18.5 -40.667 22.5 -62s6 -42.333 6 -63c0 -39.333 -6.66699 -76 -20 -110
s-33.666 -63.667 -60.999 -89s-61.666 -45.333 -102.999 -60s-90 -22 -146 -22c-48 0 -89.667 5.16699 -125 15.5s-65.5 24.166 -90.5 41.499s-45.667 37.666 -62 60.999s-29 48 -38 74s-15.333 52.667 -19 80s-5.5 53.666 -5.5 78.999h90c0 -14 1 -30.333 3 -49
s6 -37.834 12 -57.501s14.667 -39 26 -58s26.166 -36 44.499 -51s41 -27 68 -36s59.167 -13.5 96.5 -13.5c30 0 58.833 3.5 86.5 10.5s52.334 18.167 74.001 33.5s39 34.833 52 58.5s19.5 52.5 19.5 86.5c0 38.667 -8 70 -24 94s-38.167 44.5 -66.5 61.5
s-61.833 32.667 -100.5 47s-80.334 30.833 -125.001 49.5c-62 25.333 -116.167 51.5 -162.5 78.5s-84.833 56.667 -115.5 89s-53.667 68 -69 107s-23 83.167 -23 132.5c0 56 9 103.5 27 142.5s40.833 71.5 68.5 97.5s58.167 46.333 91.5 61s65 25.667 95 33
c-30 17.333 -54.833 34.833 -74.5 52.5s-35.167 36.167 -46.5 55.5s-19.166 40.166 -23.499 62.499s-6.5 46.833 -6.5 73.5c0 50.667 10 92.667 30 126s45.5 59.666 76.5 78.999s65.333 33 103 41s74.167 12 109.5 12c44.667 0 86.334 -5.5 125.001 -16.5
s72.334 -29.5 101.001 -55.5s51.167 -60 67.5 -102s24.5 -94 24.5 -156v-8h-91zM642.999 420.004c64.667 18 115.331 40.334 151.998 67.001s63.834 54 81.501 82s28.5 54.833 32.5 80.5s6 46.5 6 62.5c0 46 -7.83301 85.5 -23.5 118.5s-41 63 -76 90
s-80.333 52.5 -136 76.5s-123.167 50 -202.5 78c-28.667 -4 -58.667 -11.667 -90 -23s-60 -27.833 -86 -49.5s-47.5 -49 -64.5 -82s-25.5 -73.167 -25.5 -120.5c0 -48 7.33301 -88.833 22 -122.5s38.834 -64.334 72.501 -92.001s78 -54.167 133 -79.5s123.167 -54 204.5 -86
z" />
    <glyph glyph-name="copyright" unicode="&#xa9;" horiz-adv-x="1638" 
d="M102 910c0 65.333 8.5 128.5 25.5 189.5s40.833 118 71.5 171s67.667 101.5 111 145.5s91.666 81.5 144.999 112.5s110.666 55.167 171.999 72.5s125.333 26 192 26c65.333 0 128.5 -8.5 189.5 -25.5s118 -41 171 -72s101.5 -68.333 145.5 -112s81.5 -92 112.5 -145
s55.167 -110.167 72.5 -171.5s26 -125 26 -191c0 -66.667 -8.66699 -130.5 -26 -191.5s-41.5 -118 -72.5 -171s-68.5 -101.333 -112.5 -145s-92.5 -81 -145.5 -112s-110 -55 -171 -72s-124.167 -25.5 -189.5 -25.5c-66.667 0 -130.667 8.66699 -192 26
s-118.666 41.5 -171.999 72.5s-101.666 68.5 -144.999 112.5s-80.333 92.5 -111 145.5s-54.5 110 -71.5 171s-25.5 124.167 -25.5 189.5zM184 910c0 -60 7.33301 -117.998 22 -173.998s35.667 -108.167 63 -156.5s60.166 -92.5 98.499 -132.5s81 -74.333 128 -103
s97.667 -50.834 152 -66.501s111.5 -23.5 171.5 -23.5c57.333 0 113 7.83301 167 23.5s104.5 37.667 151.5 66s90 62.5 129 102.5s72.333 84.167 100 132.5s49.167 100.5 64.5 156.5s23 114.333 23 175s-7.83301 119.167 -23.5 175.5s-37.5 108.666 -65.5 156.999
s-61.5 92.333 -100.5 132s-82 73.667 -129 102s-97.333 50.166 -151 65.499s-108.834 23 -165.501 23c-59.333 0 -116 -7.66699 -170 -23s-104.667 -37.166 -152 -65.499s-90.166 -62.5 -128.499 -102.5s-71.166 -84.167 -98.499 -132.5s-48.5 -100.5 -63.5 -156.5
s-22.5 -114.333 -22.5 -175zM1122 801.002c-2 -12 -5.33301 -26.667 -10 -44s-11.5 -35.5 -20.5 -54.5s-20.5 -37.833 -34.5 -56.5s-31.667 -35.5 -53 -50.5s-46.5 -27.167 -75.5 -36.5s-62.833 -14 -101.5 -14c-52 0 -99 8.16699 -141 24.5s-77.833 40.166 -107.5 71.499
s-52.334 69.666 -68.001 114.999s-23.5 97.333 -23.5 156c0 58 6.83301 110.833 20.5 158.5s34.334 88.167 62.001 121.5s62.167 59.166 103.5 77.499s90 27.5 146 27.5c38.667 0 75.5 -5.33301 110.5 -16s66 -26.167 93 -46.5s48.5 -45.166 64.5 -74.499
s24.333 -62.333 25 -99h-90c-2 20.667 -6.83301 40.834 -14.5 60.501s-19.167 37.167 -34.5 52.5s-35.666 27.666 -60.999 36.999s-56.333 14 -93 14c-38.667 0 -71.5 -6.16699 -98.5 -18.5s-49.167 -28.166 -66.5 -47.499s-30.833 -40.833 -40.5 -64.5
s-16.834 -47.167 -21.501 -70.5s-7.5 -45 -8.5 -65s-1.5 -35.667 -1.5 -47c0 -47.333 5 -87.5 15 -120.5s22.667 -60.5 38 -82.5s32.5 -39.167 51.5 -51.5s37.667 -21.5 56 -27.5s35.166 -9.66699 50.499 -11s27.333 -2 36 -2c40.667 0 73.834 7.16699 99.501 21.5
s46 31.333 61 51s25.5 39.834 31.5 60.501s9.66699 37.667 11 51h90z" />
    <glyph glyph-name="guillemotleft" unicode="&#xab;" horiz-adv-x="999" 
d="M639 528l238 -374h-78l-285 374c1.33301 0 97 125 287 375h76zM268 528l238 -374h-76l-287 374l289 375h74z" />
    <glyph glyph-name="logicalnot" unicode="&#xac;" horiz-adv-x="1221" 
d="M1139 788v-520h-90v439h-967v81h1057z" />
    <glyph glyph-name="uni00AD" unicode="&#xad;" horiz-adv-x="737" 
d="M45 576v86h684v-86h-684z" />
    <glyph glyph-name="registered" unicode="&#xae;" horiz-adv-x="1638" 
d="M102 913c0 66 8.5 129.5 25.5 190.5s41.167 118 72.5 171s68.833 101.333 112.5 145s92 81.167 145 112.5s110 55.5 171 72.5s124.5 25.5 190.5 25.5c66.667 0 130.667 -8.5 192 -25.5s118.5 -41.167 171.5 -72.5s101.333 -68.833 145 -112.5s80.834 -92 111.501 -145
s54.5 -110 71.5 -171s25.5 -124.5 25.5 -190.5s-8.5 -129.5 -25.5 -190.5s-40.833 -118 -71.5 -171s-67.834 -101.333 -111.501 -145s-92 -81.167 -145 -112.5s-110.167 -55.5 -171.5 -72.5s-125.333 -25.5 -192 -25.5c-66 0 -129.5 8.5 -190.5 25.5s-118 41.167 -171 72.5
s-101.333 68.833 -145 112.5s-81.167 92 -112.5 145s-55.5 110 -72.5 171s-25.5 124.5 -25.5 190.5zM184 913c0 -60 7.66602 -118 22.999 -174s36.833 -108.167 64.5 -156.5s60.834 -92.5 99.501 -132.5s81.5 -74.333 128.5 -103s97.5 -50.834 151.5 -66.501
s110 -23.5 168 -23.5c89.333 0 172.666 17.167 249.999 51.5s144.5 81.166 201.5 140.499s101.833 128.833 134.5 208.5s49 164.834 49 255.501c0 91.333 -16.5 176.833 -49.5 256.5s-78.167 149 -135.5 208s-124.666 105.5 -201.999 139.5s-160 51 -248 51
c-57.333 0 -112.833 -7.66699 -166.5 -23s-104 -37.166 -151 -65.499s-90 -62.5 -129 -102.5s-72.5 -84.167 -100.5 -132.5s-49.667 -100.5 -65 -156.5s-23 -114.333 -23 -175zM556.999 1277l309.009 0.00488281c56.667 0 101.167 -7.83301 133.5 -23.5
s56.666 -34.334 72.999 -56.001s26.666 -44.334 30.999 -68.001s6.5 -43.5 6.5 -59.5c0 -26 -4.16699 -48.833 -12.5 -68.5s-18.5 -36.334 -30.5 -50.001s-25 -24.834 -39 -33.501s-27 -15.334 -39 -20.001v-4c22.667 -5.33301 40.667 -13.5 54 -24.5
s23.333 -23.833 30 -38.5s11.167 -30.5 13.5 -47.5s4.16602 -34.5 5.49902 -52.5c1.33301 -27.333 2.16602 -49.833 2.49902 -67.5s1.16602 -32.667 2.49902 -45s3.66602 -22.833 6.99902 -31.5s8.66602 -17.334 15.999 -26.001h-96c-6 6.66699 -10.667 13.5 -14 20.5
s-5.83301 16.167 -7.5 27.5s-2.83398 26 -3.50098 44s-1.33398 41.667 -2.00098 71c-0.666992 16.667 -2.16699 33 -4.5 49s-8.5 30.333 -18.5 43s-25.333 22.834 -46 30.501s-50 11.5 -88 11.5h-193v-297h-90v716zM647.008 929.005l197 0.000976562
c22 0 43.333 2.66699 64 8s39 13.666 55 24.999s28.833 25.833 38.5 43.5s14.5 39.167 14.5 64.5c0 28 -5.5 50.833 -16.5 68.5s-25.5 31.5 -43.5 41.5s-38.167 16.833 -60.5 20.5s-44.5 5.5 -66.5 5.5h-182v-277z" />
    <glyph glyph-name="macron" unicode="&#xaf;" horiz-adv-x="1225" 
d="M-23 1544v86h1330v-86h-1330z" />
    <glyph glyph-name="degree" unicode="&#xb0;" horiz-adv-x="889" 
d="M219 1352c0 -32 6.5 -61 19.5 -87s30.5 -48.333 52.5 -67s47.5 -33.167 76.5 -43.5s59.5 -15.5 91.5 -15.5c32.667 0 63.667 5.16699 93 15.5s55 24.833 77 43.5s39.333 41 52 67s19 55 19 87c0 27.333 -6.33301 53.5 -19 78.5s-30 47 -52 66s-47.667 34.167 -77 45.5
s-60.333 17 -93 17c-32 0 -62.5 -5.66699 -91.5 -17s-54.5 -26.5 -76.5 -45.5s-39.5 -41 -52.5 -66s-19.5 -51.167 -19.5 -78.5zM168 1352c0 35.333 8 69.0029 24 101.003s37.5 60 64.5 84s58 43.167 93 57.5s71.5 21.5 109.5 21.5c39.333 0 76.666 -7.16699 111.999 -21.5
s66.5 -33.5 93.5 -57.5s48.333 -52 64 -84s23.5 -65.667 23.5 -101c0 -39.333 -7.83301 -75.5 -23.5 -108.5s-37 -61.833 -64 -86.5s-58.167 -43.834 -93.5 -57.501s-72.666 -20.5 -111.999 -20.5c-37.333 0 -73.5 6.83301 -108.5 20.5s-66 32.667 -93 57
s-48.667 53.166 -65 86.499s-24.5 69.666 -24.5 108.999z" />
    <glyph glyph-name="plusminus" unicode="&#xb1;" horiz-adv-x="1221" 
d="M655 1161v-424h484v-82h-484v-440h-90v440h-483v82h483v424h90zM1139 82v-82h-1057v82h1057z" />
    <glyph glyph-name="acute" unicode="&#xb4;" horiz-adv-x="737" 
d="M299 1378l131 244h178l-211 -244h-98z" />
    <glyph glyph-name="paragraph" unicode="&#xb6;" horiz-adv-x="1085" 
d="M541 146v634.003h-19c-52 0 -104.667 8.16699 -158 24.5s-101.666 41.166 -144.999 74.499s-78.666 75.166 -105.999 125.499s-41 109.5 -41 177.5c0 34 3.5 68.667 10.5 104s18.833 69.666 35.5 102.999s39.167 64.666 67.5 93.999s63.666 54.833 105.999 76.5
s92.666 38.834 150.999 51.501s125.833 19 202.5 19c60.667 0 108.167 -1.33301 142.5 -4s61.833 -6 82.5 -10v-1470h-88v1402h-153v-1402h-88z" />
    <glyph glyph-name="periodcentered" unicode="&#xb7;" horiz-adv-x="692" 
d="M276 496v163h166v-163h-166z" />
    <glyph glyph-name="ordmasculine" unicode="&#xba;" horiz-adv-x="614" 
d="M311 1405c40.667 0 76.1689 -6.83398 106.502 -20.501s55.5 -31.667 75.5 -54s35 -47.666 45 -75.999s15 -57.5 15 -87.5c0 -40 -7.5 -75.5 -22.5 -106.5s-34.333 -57.333 -58 -79s-50.334 -38.167 -80.001 -49.5s-59.5 -17 -89.5 -17c-37.333 0 -70.833 6.5 -100.5 19.5
s-55 30.333 -76 52s-37.167 46.667 -48.5 75s-17 57.5 -17 87.5c0 37.333 6.5 71.666 19.5 102.999s30.667 58.333 53 81s48.666 40.334 78.999 53.001s62.5 19 96.5 19h2zM303.002 1337c-30 0 -55.499 -6 -76.499 -18s-38 -27 -51 -45s-22.333 -38 -28 -60
s-8.5 -43 -8.5 -63c0 -23.333 4.16699 -45.333 12.5 -66s20 -38.5 35 -53.5s32.667 -26.833 53 -35.5s42.166 -13 65.499 -13c24.667 0 47.334 4.5 68.001 13.5s38.5 21.5 53.5 37.5s26.833 35 35.5 57s13 46 13 72c0 15.333 -2.33301 33 -7 53s-13.334 39 -26.001 57
s-30 33.167 -52 45.5s-50.333 18.5 -85 18.5h-2z" />
    <glyph glyph-name="guillemotright" unicode="&#xbb;" horiz-adv-x="999" 
d="M401 526l-237 375h78l284 -377l-284 -372h-78zM772 526l-235 375h73l283 -375l-283 -374h-73z" />
    <glyph glyph-name="tilde" unicode="&#x2dc;" horiz-adv-x="737" 
d="M29 1432c8 32 17.5 59.668 28.5 83.001s24.833 42.666 41.5 57.999c17.333 16 38 27.833 62 35.5s48 11.5 72 11.5c20.667 0 45.5 -5.5 74.5 -16.5l106.5 -40.5c28 -12.667 52 -21.667 72 -27s40.333 -8 61 -8c32.667 0 58.5 6.16699 77.5 18.5s33.5 37.5 43.5 75.5h73
c-9.33301 -62.667 -31 -109.667 -65 -141s-75 -47 -123 -47c-23.333 0 -49.333 5 -78 15s-62 24 -100 42c-60 27.333 -104.333 41 -133 41c-34.667 0 -63.167 -7.66699 -85.5 -23s-37.5 -41 -45.5 -77h-82z" />
    <glyph glyph-name="uni10D0" unicode="&#x10d0;" horiz-adv-x="780" 
d="M700 485c0 -113.333 -30.333 -197.33 -91 -251.997c-61.333 -55.333 -132.666 -83 -213.999 -83c-89.333 0 -164.333 27 -225 81c-60 54 -90 131 -90 231c0 70 21 131.667 63 185l68 -39c-30.667 -36.667 -46 -85.334 -46 -146.001c0 -75.333 23.667 -133 71 -173
c49.333 -39.333 102.333 -59 159 -59c57.333 0 107.666 19.667 150.999 59s65 104.666 65 195.999c0 115.333 -59 209.666 -177 282.999c-105.333 66 -158 135.667 -158 209c0 4 0.166992 8.16699 0.5 12.5s0.833008 8.5 1.5 12.5h90
c-0.666992 -3.33301 -1.16699 -6.83301 -1.5 -10.5s-0.5 -7.16699 -0.5 -10.5c0 -64 52.667 -129 158 -195c117.333 -74 176 -174.333 176 -301z" />
    <glyph glyph-name="uni10D1" unicode="&#x10d1;" horiz-adv-x="810" 
d="M170 550c0 -96 24.999 -173.333 74.999 -232s103.333 -88 160 -88c65.333 0 121 30.667 167 92c46 60.667 69 136.667 69 228c0 90 -22.667 165.667 -68 227c-45.333 62 -100.666 93 -165.999 93c-72 0 -129.333 -31 -172 -93c-43.333 -61.333 -65 -137 -65 -227z
M254.999 1610c0 -1.33301 -0.166992 -2.83496 -0.5 -4.50195s-0.5 -3.5 -0.5 -5.5c0 -59.333 45 -130 135 -212c72.667 -58 109 -139 109 -243c0 -60 -11.333 -125 -34 -195c74.667 -22 137.667 -68 189 -138c51.333 -71.333 77 -158.666 77 -261.999
c0 -109.333 -30.667 -203.666 -92 -282.999c-61.333 -78 -139 -117 -233 -117c-93.333 0 -171 38.667 -233 116c-61.333 79.333 -92 174 -92 284c0 100 27 188.667 81 266c54.667 77.333 126.667 122.666 216 135.999c26 68.667 39 131.334 39 188.001
c0 87.333 -32.333 158.333 -97 213c-109.333 75.333 -164 160 -164 254v3h100z" />
    <glyph glyph-name="uni10D2" unicode="&#x10d2;" horiz-adv-x="907" 
d="M160 18c0 -108.667 31.668 -193.667 95.001 -255c62.667 -62 126 -93 190 -93c86.667 0 158 30.667 214 92c55.333 61.333 83.666 146.666 84.999 255.999c-1.33301 100.667 -32 185 -92 253c-60 68.667 -126.333 103 -199 103c-77.333 0 -145.333 -34.333 -204 -103
c-59.333 -69.333 -89 -153.666 -89 -252.999zM836.001 18l0.000976562 -4.99707c0 -112 -37.667 -210.667 -113 -296c-74.667 -84.667 -167.334 -127 -278.001 -127c-97.333 0 -184.333 42.333 -261 127c-76 84.667 -114 185 -114 301c0 117.333 35.667 218.666 107 303.999
c90.667 84.667 182 127 274 127c104 76 156 166 156 270c0 41.333 -17 79.666 -51 114.999c-33.333 35.333 -78.333 53 -135 53c-57.333 0 -102.333 -15 -135 -45s-49 -65.333 -49 -106c0 -49.333 9.66699 -83 29 -101l-63 -55c-35.333 51.333 -53 101.666 -53 150.999
c0 72.667 27 130 81 172s117.333 63 190 63c79.333 0 144.333 -23.333 195 -70c52 -47.333 78 -106 78 -176c0 -112 -47 -205 -141 -279c84 -35.333 152 -87.333 204 -156c52.667 -66.667 79 -155.667 79 -267z" />
    <glyph glyph-name="uni10D3" unicode="&#x10d3;" horiz-adv-x="1224" 
d="M1055 560c0 83.333 -22.667 155.668 -68 217.001c-45.333 62 -98 93 -158 93c-58 0 -110.333 -28 -157 -84c-46 -55.333 -69 -134 -69 -236c0 -104.667 23 -184.334 69 -239.001c46.667 -54 98.667 -81 156 -81c49.333 0 99.333 26.333 150 79
c51.333 53.333 77 137 77 251zM513 550.002c0 65.333 12.667 129.998 38 193.998c-43.333 84 -96 126 -158 126c-61.333 0 -114 -22.667 -158 -68c-43.333 -45.333 -65 -119.666 -65 -222.999c0 -126.667 35.667 -242.667 107 -348c72 -104 170 -194.333 294 -271
c218 -112.667 347.333 -231 388 -355h-107c-54 98 -106.333 164.333 -157 199c-50 34 -107.333 51.333 -172 52c-69.333 -1.33301 -148.333 -14.333 -237 -39v102h190v6c-132 84 -231 179.667 -297 287s-99 229.666 -99 366.999c0 131.333 29.667 226 89 284
c58.667 58 127 87 205 87c84 0 158 -43 222 -129c60 86 137.333 129 232 129c92 0 167.333 -38.333 226 -115c60 -77.333 90 -167.333 90 -270c0 -123.333 -30.667 -223.666 -92 -300.999c-61.333 -76 -136 -114 -224 -114s-162.667 38.667 -224 116
c-60.667 76.667 -91 171.334 -91 284.001z" />
    <glyph glyph-name="uni10D4" unicode="&#x10d4;" horiz-adv-x="820" 
d="M720 -77c0 -116 -33.001 -200.334 -99.001 -253.001c-65.333 -53.333 -142.333 -80 -231 -80c-83.333 0 -157.666 29.667 -222.999 89c-64.667 58.667 -97 140.667 -97 246c0 99.333 41.667 182.666 125 249.999l55 -51c-60 -56 -90 -122.333 -90 -199
c0 -80 25 -142.333 75 -187c51.333 -45.333 103 -68 155 -68c66.667 0 123.667 21.667 171 65c46.667 42.667 70 105.334 70 188.001v713c0 81.333 -18.167 140.666 -54.5 177.999s-86.166 56 -149.499 56c-60.667 0 -110.334 -19.333 -149.001 -58
c-39.333 -39.333 -59 -82.333 -59 -129c0 -70 24 -124.333 72 -163l-69 -52c-55.333 49.333 -83 117 -83 203c0 82.667 25.333 149.334 76 200.001c50.667 52.667 119 79 205 79s157.333 -24.333 214 -73c57.333 -49.333 86 -129.666 86 -240.999v-713z" />
    <glyph glyph-name="uni10D5" unicode="&#x10d5;" horiz-adv-x="800" 
d="M720 -65c0 -114.667 -26.835 -200.834 -80.502 -258.501s-135.167 -86.5 -244.5 -86.5c-94.667 0 -172.667 31.667 -234 95c-60.667 62.667 -91 142.667 -91 240c0 103.333 41.667 186.666 125 249.999l31 -66c-44 -46 -66 -107.333 -66 -184
c0 -71.333 24.667 -131.666 74 -180.999c51.333 -49.333 105 -74 161 -74c74.667 0 132.334 24.333 173.001 73c41.333 49.333 62 113.333 62 192v138c0 51.333 -18.333 101.333 -55 150c-37.333 50 -75.666 75 -114.999 75h-96v77h97c36 0 73 23.667 111 71
c38.667 46.667 58 114 58 202c0 61.333 -21.667 113.666 -65 156.999s-96 65 -158 65c-58.667 0 -109.334 -18 -152.001 -54s-64 -80.333 -64 -133c0 -49.333 14 -90.333 42 -123l-66 -56c-38 48.667 -57 104.334 -57 167.001c0 86 28.667 154 86 204
c58 50 127.667 75 209 75c98.667 0 175.334 -27.333 230.001 -82c56.667 -54 85 -128 85 -222c0 -129.333 -59.667 -229.666 -179 -300.999v-15c119.333 -73.333 179 -162.333 179 -267v-128z" />
    <glyph glyph-name="uni10D6" unicode="&#x10d6;" horiz-adv-x="828" 
d="M571 1337c0 -76.667 -16.9971 -142.334 -50.9971 -197.001c-16.667 -28 -39.334 -58.167 -68.001 -90.5s-63.334 -67.833 -104.001 -106.5l74 7c81.333 0 156 -34.667 224 -104s102 -168 102 -296c-0.666992 -121.333 -33.667 -218.666 -99 -291.999
c-65.333 -72 -141 -108 -227 -108c-84 0 -159.333 38 -226 114c-66 76 -99 171.333 -99 286c0 78.667 14.667 153 44 223c14.667 34 39.167 71.333 73.5 112s78.5 86 132.5 136h-62c-62 0 -123.667 28.667 -185 86c-60 58.667 -90 133 -90 223
c0 80.667 25.667 150.667 77 210c52 60 118.333 90 199 90c87.333 0 156.666 -29.667 207.999 -89s77 -127.333 77 -204zM190.003 550c0 -104 24 -183.332 72 -237.999c48.667 -54.667 102 -82 160 -82c62 0 116.333 27.333 163 82s70 134 70 238
c0 86.667 -21.667 161.667 -65 225s-99.333 95 -168 95c-81.333 0 -140.333 -30 -177 -90c-36.667 -58.667 -55 -135.334 -55 -230.001zM95.0029 1329c0 -70 23 -129.002 69 -177.002c46 -47.333 89 -71 129 -71c46 0 90 18 132 54c42 36.667 63 102.334 63 197.001
c0 58.667 -18.333 109.334 -55 152.001c-37.333 44 -85.666 66 -144.999 66c-50.667 0 -95.334 -21 -134.001 -63c-39.333 -43.333 -59 -96 -59 -158z" />
    <glyph glyph-name="uni10D7" unicode="&#x10d7;" horiz-adv-x="1265" 
d="M640 550c0 98.667 -25.002 176.667 -75.002 234c-49.333 57.333 -102.666 86 -159.999 86c-63.333 0 -118.333 -30.333 -165 -91c-46.667 -58.667 -70 -135 -70 -229c0 -92 23.667 -168.667 71 -230c46.667 -60 101.334 -90 164.001 -90c60.667 0 115 29.333 163 88
s72 136 72 232zM729.998 550c0 -105.333 -31.335 -198.333 -94.002 -279c-62 -80.667 -139 -121 -231 -121c-94.667 0 -172.334 41 -233.001 123c-61.333 83.333 -92 175.666 -92 276.999c0 112.667 32.333 207.334 97 284.001c65.333 77.333 141.333 116 228 116
c44.667 0 91.334 -13.333 140.001 -40c50 -26.667 91.667 -68 125 -124c28.667 54.667 62.834 95.667 102.501 123s81.834 41 126.501 41c84 0 152.667 -35.667 206 -107s80 -164.333 80 -279c0 -176.667 -75.667 -317 -227 -421h-107c160 108.667 240 249.334 240 422.001
c0 101.333 -20.333 177.333 -61 228c-41.333 51.333 -84.666 77 -129.999 77c-48.667 0 -89.334 -19 -122.001 -57c-15.333 -18.667 -29 -36.834 -41 -54.501s-22.333 -35.167 -31 -52.5c16 -55.333 24 -107.333 24 -156z" />
    <glyph glyph-name="uni10D8" unicode="&#x10d8;" horiz-adv-x="810" 
d="M405 950c102.667 0 182.333 -32.333 239 -97c57.333 -65.333 86 -156.333 86 -273c0 -143.333 -52 -283.333 -156 -420h-79c96.667 148.667 145 289.667 145 423c0 82 -22.667 150.667 -68 206c-45.333 54 -101 81 -167 81c-66.667 0 -122.334 -27 -167.001 -81
c-45.333 -55.333 -68 -124 -68 -206c0 -119.333 48.333 -260.333 145 -423h-78c-104.667 150.667 -157 290.667 -157 420c0 116.667 28.667 207.667 86 273c56.667 64.667 136.334 97 239.001 97z" />
    <glyph glyph-name="uni10D9" unicode="&#x10d9;" horiz-adv-x="790" 
d="M710 -75c0 -98 -31 -178.333 -93 -241c-60.667 -62.667 -138 -94 -232 -94c-95.333 0 -173.333 32.333 -234 97c-60.667 62.667 -91 142 -91 238c0 103.333 41.667 186.666 125 249.999l36 -67c-47.333 -42 -71 -103 -71 -183c0 -69.333 24 -129 72 -179
c48.667 -50.667 103 -76 163 -76c56.667 0 109.667 23 159 69c49.333 45.333 74 107.333 74 186v91c0 104 -27.667 181.667 -83 233s-109.666 77 -162.999 77h-85v82h87c58 0 107.333 19.333 148 58c41.333 39.333 62 88.666 62 147.999c0 96 -80.333 181.333 -241 256
l11 80c217.333 -87.333 326 -196.666 326 -327.999c0 -54.667 -14.667 -101.667 -44 -141c-28 -38 -85.667 -73.667 -173 -107v-18c81.333 -16 142.666 -57.667 183.999 -125c42 -67.333 63 -137.666 63 -210.999v-95z" />
    <glyph glyph-name="uni10DA" unicode="&#x10da;" horiz-adv-x="1588" 
d="M1508 613c0 -140.667 -63.335 -279.332 -190.002 -415.999h-76c119.333 153.333 179 292 179 416c0 164.667 -60 247 -180 247c-74.667 0 -124.667 -27.667 -150 -83c-25.333 -58 -38 -126.667 -38 -206v-149h-85v153c0 106 -9.66699 184 -29 234
c-19.333 47.333 -63.666 71 -132.999 71c-67.333 0 -112 -23.667 -134 -71c-21.333 -50 -33 -128 -35 -234v-153h-86v153c0 76 -12.667 143 -38 201c-25.333 56 -79.666 84 -162.999 84c-42.667 0 -83.334 -22.333 -122.001 -67s-58 -122 -58 -232
c0 -153.333 63.333 -282.333 190 -387c127.333 -104 271.666 -182.667 432.999 -236c170 -58 306 -161.667 408 -311h-115c-87.333 121.333 -190 200.666 -308 237.999c-38 12 -76 18 -114 18c-12 0 -23.833 -0.666992 -35.5 -2s-23.167 -3 -34.5 -5
c-62 -12 -150.667 -36 -266 -72l-17 104l291 25l1 17c-194.667 74 -330.334 165.333 -407.001 274c-77.333 109.333 -116 222.333 -116 339c0 114.667 23 206 69 274c46.667 68.667 114.667 103 204 103c60.667 0 110.334 -15.167 149.001 -45.5s66.667 -72.833 84 -127.5
h15c10.667 60.667 33.167 108 67.5 142s79.833 51 136.5 51c58.667 0 103.834 -17 135.501 -51s53.167 -81.333 64.5 -142h16c16.667 54.667 43.834 97.167 81.501 127.5s83.5 45.5 137.5 45.5c178.667 0 268 -109 268 -327z" />
    <glyph glyph-name="uni10DB" unicode="&#x10db;" horiz-adv-x="831" 
d="M406 870c-69.333 0 -126.001 -33.333 -170.001 -100c-43.333 -67.333 -65 -139 -65 -215v-11c0 -96 24.667 -172.667 74 -230c50 -56 103.333 -84 160 -84c60 0 114 28.667 162 86c48.667 56.667 73 129.667 73 219c0 56 -5.66699 105 -17 147
s-27.166 76.833 -47.499 104.5s-45 48.5 -74 62.5s-60.833 21 -95.5 21zM79.999 550c1.33301 105.333 33 197.999 95 277.999c63.333 81.333 140 122 230 122c94.667 0 173 -41 235 -123l6 1v421c0 54.667 -3.83301 101.334 -11.5 140.001s-20.5 69.334 -38.5 92.001
c-36 46 -89 69 -159 69c-68.667 0 -124 -19 -166 -57s-63.333 -88.333 -64 -151c1.33301 -40.667 16 -83 44 -127l-89 -37c-28 58.667 -42 109 -42 151c2 89.333 31.667 161.666 89 216.999c58 56 133.667 84 227 84c99.333 0 173.333 -33 222 -99s73 -159 73 -279l-1 -713
c0 -106 -31.333 -197.333 -94 -274c-62 -76.667 -139 -115 -231 -115s-169.333 40 -232 120c-62 80 -93 173.333 -93 280z" />
    <glyph glyph-name="uni10DC" unicode="&#x10dc;" horiz-adv-x="830" 
d="M660 550c0 95.333 -25.999 172.667 -77.999 232c-50.667 58.667 -102 88 -154 88c-72.667 0 -130.5 -26.333 -173.5 -79s-64.5 -133 -64.5 -241c0 -90 22 -166 66 -228c45.333 -61.333 101.666 -92 168.999 -92c62.667 0 117.667 29.667 165 89
c46.667 58.667 70 135.667 70 231zM750.001 550.001c0 -110 -31 -204.333 -93 -283c-62 -78 -139.333 -117 -232 -117c-93.333 0 -171 38.333 -233 115c-61.333 77.333 -92 172.333 -92 285v818c0 151.333 84.333 227 253 227h184c70 0 105 13 105 39h82
c0 -74 -62.333 -111 -187 -111h-209c-97.333 0 -146 -41.667 -146 -125v-568h20c66 80 140.333 120 223 120c90 0 166.333 -39.333 229 -118c64 -78 96 -172 96 -282z" />
    <glyph glyph-name="uni10DD" unicode="&#x10dd;" horiz-adv-x="1250" 
d="M583 449l0.00292969 121.999c0 86 -19.333 157.333 -58 214c-34.667 56.667 -82 85 -142 85c-58.667 0 -108.667 -26.667 -150 -80s-62 -124.666 -62 -213.999c0 -158.667 93 -297.334 279 -416.001h-95c-183.333 105.333 -275 244 -275 416
c0 64.667 6.83301 120.5 20.5 167.5s33.5 85.833 59.5 116.5s57.5 53.334 94.5 68.001s79.167 22 126.5 22c56.667 0 104.667 -16.667 144 -50s68.666 -84.333 87.999 -153h16c19.333 68.667 49.166 119.667 89.499 153s88.833 50 145.5 50c82 0 153.667 -29.667 215 -89
c60.667 -58.667 91 -154 91 -286c0 -172.667 -99.667 -311 -299 -415h-99c204.667 116.667 307 256.667 307 420c0 86 -21 155.667 -63 209c-41.333 54 -91.333 81 -150 81c-62.667 0 -111.334 -28.333 -146.001 -85c-38.667 -56.667 -58 -128 -58 -214v-122h-79z" />
    <glyph glyph-name="uni10DE" unicode="&#x10de;" horiz-adv-x="810" 
d="M690 1178c0 -59.333 -12.999 -108.001 -38.999 -146.001c-25.333 -37.333 -76.333 -79.666 -153 -126.999v-21c56.667 -22.667 109.334 -64 158.001 -124c49.333 -61.333 74 -141.666 74 -240.999c0 -84 -30.667 -166.667 -92 -248
c-60.667 -80.667 -138.334 -121 -233.001 -121c-88.667 0 -165 36.667 -229 110c-64 74 -96 154.667 -96 242c0 73.333 30 144.666 90 213.999l64 -47c-42 -45.333 -63 -101 -63 -167v-4c0 -32 5.83301 -62.5 17.5 -91.5s29.167 -58.5 52.5 -88.5
c48 -58.667 102.667 -88 164 -88c64.667 0 120 28.667 166 86c46 56.667 69 125 69 205c0 109.333 -31.333 192.333 -94 249s-121 85 -175 85h-57v80h77c55.333 0 103.666 25 144.999 75c41.333 51.333 62 110 62 176c0 84 -56 146.667 -168 188
c-112 42 -168 120.667 -168 236h77c0 -73.333 58.333 -138.333 175 -195c117.333 -57.333 176 -136.333 176 -237z" />
    <glyph glyph-name="uni10DF" unicode="&#x10df;" horiz-adv-x="810" 
d="M710 -74c0 -49.333 -8.33301 -94.6641 -25 -135.997s-39.5 -76.833 -68.5 -106.5s-63.167 -52.667 -102.5 -69s-81.666 -24.5 -126.999 -24.5c-86.667 0 -162.667 28.667 -228 86c-64.667 56.667 -97 131 -97 223c0 78 29 144.667 87 200l43 -54
c-30 -39.333 -45 -87 -45 -143c0 -61.333 22.333 -115.333 67 -162s102.334 -70 173.001 -70c32 0 62.667 6.16699 92 18.5s55.166 29.833 77.499 52.5s40.166 49.667 53.499 81s20 65.666 20 102.999v943h-28c-110.667 -94.667 -242.334 -142 -395.001 -142v-14
c136.667 -28.667 205 -103.334 205 -224.001c0 -68.667 -19.667 -118.834 -59 -150.501s-101.333 -47.5 -186 -47.5h-107v71h107c20.667 0.666992 41.334 3.5 62.001 8.5s39.167 13 55.5 24s29.5 24.833 39.5 41.5s15 37 15 61c0 26.667 -8.66699 52.167 -26 76.5
s-39 45.5 -65 63.5s-54.5 32.333 -85.5 43s-59.833 16 -86.5 16h-14v67c232 18.667 414.667 84.667 548 198h100v-1034z" />
    <glyph glyph-name="uni10E0" unicode="&#x10e0;" horiz-adv-x="1246" 
d="M1075 561c0 94.667 -19.6689 169.67 -59.002 225.003c-38.667 55.333 -87.667 83.666 -147 84.999c-57.333 -1.33301 -104.333 -30 -141 -86c-41.333 -57.333 -62 -124 -62 -200v-131h-79v131c0 77.333 -19 143.666 -57 198.999c-34.667 56 -83.667 84.667 -147 86
c-59.333 0 -109.333 -27 -150 -81c-41.333 -53.333 -62 -129.333 -62 -228c0 -158 94.333 -291.333 283 -400h-105c-179.333 93.333 -269 226.666 -269 399.999c0 120 33.667 224.667 101 314l180.5 238l129.5 173c70 96 128.333 196.333 175 301h98
c-80 -146.667 -160.167 -275 -240.5 -385s-159.166 -206.667 -236.499 -290l11 -11c38.667 32.667 74.334 49 107.001 49c54.667 0 98.834 -16.333 132.501 -49s60.5 -83.334 80.5 -152.001h20c19.333 68.667 47.5 119.334 84.5 152.001s84.833 49 143.5 49
c99.333 0 174.166 -34 224.499 -102s75.5 -163.667 75.5 -287c0 -174 -94.667 -307.667 -284 -401h-97c193.333 109.333 290 243 290 401z" />
    <glyph glyph-name="uni10E1" unicode="&#x10e1;" horiz-adv-x="810" 
d="M730 540c0 -114 -30.999 -207.333 -92.999 -280c-61.333 -73.333 -135.333 -110 -222 -110c-94 0 -170 38.667 -228 116c-58 78 -87 170.333 -87 277v1067h84v-1067c1.33301 -102 23.666 -179.667 66.999 -233c45.333 -53.333 100 -80 164 -80c60 0 112.667 28 158 84
c46 56.667 69 132 69 226c0 75.333 -28.333 138.333 -85 189c-56 52 -84 105.667 -84 161s19.333 111.333 58 168l74 -41c-38 -39.333 -57 -79.666 -57 -120.999c0 -31.333 30.333 -78.333 91 -141s91 -134.334 91 -215.001z" />
    <glyph glyph-name="uni10E2" unicode="&#x10e2;" horiz-adv-x="1043" 
d="M493 873c-90 0 -168.001 -58 -234.001 -174c-66 -115.333 -99 -257.333 -99 -426c0 -188 36 -335.333 108 -442c72 -107.333 159.667 -161 263 -161c108.667 0 195.667 53.667 261 161c64.667 106.667 97 254 97 442c0 166.667 -33.667 308.667 -101 426
c-67.333 116 -145.666 174 -234.999 174l20 -532h-100zM69.999 273c0 216.667 44.666 379.668 133.999 489.001c90 108.667 186.333 163 289 163l-20 300h100l-20 -300c95.333 0 189 -54.333 281 -163c92.667 -106.667 139 -269.667 139 -489
c0 -193.333 -37.333 -355.333 -112 -486c-75.333 -131.333 -186.666 -197 -333.999 -197c-141.333 0 -253 65.333 -335 196c-81.333 131.333 -122 293.666 -122 486.999z" />
    <glyph glyph-name="uni10E3" unicode="&#x10e3;" horiz-adv-x="926" 
d="M826 -72c0 -106.667 -28.3311 -189.334 -84.998 -248.001c-57.333 -60 -133.333 -90 -228 -90c-102.667 0 -184.334 31 -245.001 93c-61.333 61.333 -92 142.333 -92 243c0 95.333 43.333 178.333 130 249l30 -68c-46 -49.333 -69 -108 -69 -176
c0 -67.333 22.333 -127.333 67 -180c44.667 -54 104 -81 178 -81c57.333 0 110.666 22.667 159.999 68c48.667 44.667 73 107 73 187v804c0 34 -9.33301 67.333 -28 100c-17.333 33.333 -48 50 -92 50h-53c-36 0 -60.667 -18 -74 -54c-13.333 -38.667 -20 -81 -20 -127v-232
h-73v232c0 24.667 -2.33301 48 -7 70s-11 41.333 -19 58s-17.5 29.667 -28.5 39s-22.833 14 -35.5 14h-19c-11.333 0 -22.5 -5.83301 -33.5 -17.5s-21.833 -26.167 -32.5 -43.5c-20 -34 -48.333 -51 -85 -51c-57.333 0 -99 54.333 -125 163l65 33
c6.66699 -80.667 30.667 -121 72 -121c28 0 51.667 18 71 54c18.667 36 41.334 54 68.001 54h29c17.333 0 37.666 -10.667 60.999 -32s40 -57.666 50 -108.999h10c9.33301 50.667 29 86.834 59 108.501s66.333 32.5 109 32.5c64.667 0 116 -23 154 -69
c38.667 -44.667 58 -104.334 58 -179.001v-774z" />
    <glyph glyph-name="uni10E4" unicode="&#x10e4;" horiz-adv-x="1165" 
d="M583 572c0 88 -18.666 159.667 -55.999 215s-87 83 -149 83c-60.667 0 -111.334 -28.333 -152.001 -85c-40.667 -54.667 -61 -125.667 -61 -213c0 -80.667 19 -149.334 57 -206.001c38 -57.333 87.667 -86 149 -86s112 28.667 152 86c40 56.667 60 125.334 60 206.001z
M659.001 575c0 -95.333 -25.333 -180.333 -76 -255c-51.333 -75.333 -122 -113 -212 -113c-82 0 -151 34.333 -207 103s-84 156.334 -84 263.001c0 102.667 27 191 81 265c54.667 74.667 127 112 217 112c84 0 158 -47.333 222 -142c58 94.667 128.667 142 212 142
c69.333 0 130.666 -28.667 183.999 -86c52.667 -56.667 79 -141.334 79 -254.001c0 -122 -53.667 -228.667 -161 -320v-12c90.667 -66.667 136 -165 136 -295v-44c0 -116.667 -32.667 -204 -98 -262s-140.333 -87 -225 -87c-100 0 -179.333 28.333 -238 85
c-59.333 57.333 -89 124.666 -89 201.999c0 82 26.333 145 79 189l51 -37c-36.667 -38.667 -55 -77 -55 -115c0 -61.333 21.667 -117.666 65 -168.999c42.667 -50 104.334 -75 185.001 -75c57.333 0 110.333 22.333 159 67c49.333 44 74 111 74 201v39
c0 84 -11.833 150.5 -35.5 199.5s-57.5 73.5 -101.5 73.5h-64v69h64c36.667 0 72.667 24.667 108 74c36 50 54 113.667 54 191c0 112 -15.333 187.333 -46 226c-31.333 40 -77 60 -137 60c-65.333 0 -122 -37.333 -170 -112c19.333 -82.667 29 -143.667 29 -183z" />
    <glyph glyph-name="uni10E5" unicode="&#x10e5;" horiz-adv-x="840" 
d="M730 -75c0 -104.667 -30.668 -186.667 -92.001 -246s-139 -89 -233 -89c-87.333 0 -163.333 31.333 -228 94c-64.667 62 -97 142.333 -97 241c0 109.333 41.667 192.666 125 249.999l36 -66c-46.667 -34 -70 -95.333 -70 -184c0 -60 21.667 -117.667 65 -173
c44 -54.667 100.333 -82 169 -82c63.333 0 119 24 167 72c48.667 48 73 109 73 183v728c0 68.667 -21.333 122 -64 160c-43.333 38 -95.333 57 -156 57c-74 0 -124 -19 -150 -57s-39 -82 -39 -132c0 -65.333 21.667 -119.666 65 -162.999l-51 -61
c-65.333 75.333 -98 150 -98 224v3c0 88 22.333 154.333 67 199s113.334 67 206.001 67c68.667 0 135.667 -26.667 201 -80h24v740h80v-1685z" />
    <glyph glyph-name="uni10E6" unicode="&#x10e6;" horiz-adv-x="1160" 
d="M1080 625c0 -134 -56.6641 -258.67 -169.997 -374.003h-58c90 110.667 135 234 135 370c0 42 -5.16699 78.5 -15.5 109.5s-24 56.833 -41 77.5s-36.667 36.167 -59 46.5s-45.5 15.5 -69.5 15.5c-27.333 0 -52.333 -8.16699 -75 -24.5s-42.334 -38.666 -59.001 -66.999
s-29.5 -61.333 -38.5 -99s-13.5 -77.834 -13.5 -120.501v-146h-72v146c-0.666992 42.667 -5.33398 82.834 -14.001 120.501s-21.334 70.667 -38.001 99s-37 50.666 -61 66.999s-51.333 24.5 -82 24.5c-24 0 -46.667 -4.16699 -68 -12.5s-40 -23 -56 -44s-29 -49.667 -39 -86
s-15.333 -82.166 -16 -137.499c0 -88.667 35 -193.334 105 -314.001c28.667 -46.667 63.334 -89.5 104.001 -128.5s87.334 -74.833 140.001 -107.5c184 -101.333 309.667 -235.666 377 -402.999h-106c-65.333 158 -158 257 -278 297c-4.66699 0.666992 -9.16699 1 -13.5 1
h-13.5c-34 0 -71.333 -5.66699 -112 -17s-85 -28.666 -133 -51.999l-6 110l191 27v13c-230 180.667 -345 372 -345 574c0 68 7.66699 125 23 171s35 83 59 111s50.833 48 80.5 60s58.5 18 86.5 18c26 0 51.5 -3.5 76.5 -10.5s48.167 -18.667 69.5 -35
s40.666 -38.166 57.999 -65.499s31.666 -61 42.999 -101h10c10 39.333 22 72.5 36 99.5s30 48.833 48 65.5s38 28.667 60 36s46 11 72 11c44.667 0 84.334 -8.33301 119.001 -25s63.667 -39.5 87 -68.5s41.166 -63.333 53.499 -103s18.5 -82.5 18.5 -128.5z" />
    <glyph glyph-name="uni10E7" unicode="&#x10e7;" horiz-adv-x="820" 
d="M720 -75c0 -109.333 -30.332 -192.332 -90.999 -248.999c-61.333 -57.333 -139.333 -86 -234 -86c-84.667 0 -160 29 -226 87c-66 56.667 -99 139.334 -99 248.001c0 77.333 26.667 145.666 80 204.999l46 -28c-27.333 -49.333 -41 -108.333 -41 -177
c0 -70 27.333 -130 82 -180s107.334 -75 158.001 -75c65.333 0 121.666 21.667 168.999 65s71 106.666 71 189.999v442h-14c-67.333 -71.333 -139 -107 -215 -107c-98.667 0 -174.334 28.333 -227.001 85s-79 142 -79 256c0 76.667 15.667 145.334 47 206.001
s74 110 128 148h90c-71.333 -76.667 -119 -138.334 -143 -185.001c-24 -47.333 -36 -104.333 -36 -171c0 -78 21.667 -142.667 65 -194c44 -50 95.333 -75 154 -75c62.667 0 116.667 23 162 69c45.333 47.333 68 107.333 68 180v364h85v-1018z" />
    <glyph glyph-name="uni10E8" unicode="&#x10e8;" horiz-adv-x="883" 
d="M228 550c0 -112 22.333 -193.333 67 -244s98.667 -76 162 -76c58 0 112.667 28.667 164 86s77 135.333 77 234s-24.667 176.667 -74 234s-105 86 -167 86c-62.667 0 -116.667 -26.667 -162 -80c-44.667 -52.667 -67 -132.667 -67 -240zM783 550
c0 -112.667 -31.334 -207.332 -94.001 -283.999c-62 -77.333 -139 -116 -231 -116c-100.667 0 -180 40 -238 120s-87 173.333 -87 280v5c0 117.333 32 212 96 284c64.667 74 141 111 229 111c72 0 146.667 -36.667 224 -110h16v530c0 68.667 -9.66699 117.667 -29 147
c-18.667 28.667 -54.334 43 -107.001 43c-25.333 0 -46.333 -4.83301 -63 -14.5s-30.167 -23.334 -40.5 -41.001s-17.666 -38.834 -21.999 -63.501s-6.5 -52 -6.5 -82v-219h-76v219c0 62.667 -8.33301 111 -25 145c-17.333 37.333 -49 56 -95 56
c-56.667 0 -93.667 -13.667 -111 -41c-16.667 -26.667 -25 -62.667 -25 -108v-198h-78v204c0 68.667 16.167 121.334 48.5 158.001s82.833 55 151.5 55c79.333 0 135 -45.333 167 -136h9c36.667 90.667 89.334 136 158.001 136c76.667 0 134 -22 172 -66
s57 -109.333 57 -196v-818z" />
    <glyph glyph-name="uni10E9" unicode="&#x10e9;" horiz-adv-x="830" 
d="M466 1140c44.667 78.667 66.999 162.995 66.999 252.995c0 34.667 -16.333 69.334 -49 104.001c-33.333 35.333 -76.666 53 -129.999 53c-56.667 0 -99 -22.667 -127 -68s-42 -117 -42 -215v-437h20c66.667 80 140 120 220 120c102 0 181.667 -33.667 239 -101
s86 -148.666 86 -243.999c0 -153.333 -65.667 -301.666 -197 -444.999h-99c134 132.667 201 280.334 201 443.001c0 72 -21.333 134.333 -64 187c-42 53.333 -97.333 80 -166 80c-64 0 -120 -24.333 -168 -73c-48 -48 -72 -112.667 -72 -194v-433h-85v1104
c0 62.667 5.66699 116.5 17 161.5s28 81.833 50 110.5s49 49.834 81 63.501s68.667 20.5 110 20.5c81.333 0 144.333 -22.333 189 -67c45.333 -44 68 -100.667 68 -170c0 -98 -33.667 -192.667 -101 -284z" />
    <glyph glyph-name="uni10EA" unicode="&#x10ea;" horiz-adv-x="945" 
d="M846 601c0 -95.333 -57.334 -174.334 -172.001 -237.001v-9c134 -45.333 201 -152 201 -320c0 -133.333 -34.333 -240.333 -103 -321c-68 -82.667 -161.333 -124 -280 -124c-132 0 -235.333 60.333 -310 181s-112 291.334 -112 512.001c0 228 44.667 438 134 630h90
c-86 -185.333 -129 -396 -129 -632c0 -174 26.667 -320 80 -438c53.333 -115.333 138.333 -173 255 -173c87.333 0 156 36.333 206 109s75 158.667 75 258c0 84 -22.667 150.667 -68 200c-45.333 48 -92.666 72 -141.999 72h-119v91h119c47.333 0 89 18.333 125 55
c36.667 36.667 55 85.667 55 147c0 51.333 -38.667 99 -116 143c-76.667 44.667 -115 104 -115 178h84c0 -56 40.333 -104.333 121 -145s121 -99.667 121 -177z" />
    <glyph glyph-name="uni10EB" unicode="&#x10eb;" horiz-adv-x="830" 
d="M642 550c0 91.333 -23.666 167.667 -70.999 229c-46.667 60.667 -102.334 91 -167.001 91c-65.333 0 -120.666 -32.667 -165.999 -98c-44.667 -64.667 -67 -139 -67 -223c0 -87.333 24 -162.333 72 -225c48.667 -62.667 102.667 -94 162 -94
c67.333 0 123.666 31 168.999 93c45.333 63.333 68 139 68 227zM730.001 550.001c0 -108.667 -30.668 -202.666 -92.001 -281.999c-60.667 -78.667 -138.667 -118 -234 -118c-94 0 -171.333 40 -232 120c-61.333 81.333 -92 174.666 -92 279.999
c0 119.333 33.333 215.333 100 288c66.667 74.667 141.334 112 224.001 112c82 0 155.667 -36.667 221 -110h17v770h88v-1060z" />
    <glyph glyph-name="uni10EC" unicode="&#x10ec;" horiz-adv-x="844" 
d="M667 617c0 85.333 -21.999 148.663 -65.999 189.996c-44 42 -98.333 63 -163 63c-72 0 -128.667 -18.667 -170 -56c-35.333 -32 -53 -78 -53 -138c0 -5.33301 0.166992 -10.666 0.5 -15.999s0.833008 -10.666 1.5 -15.999v-8c0 -85.333 16 -195.333 48 -330
c16.667 -68.667 30.167 -148.667 40.5 -240s17.166 -195.666 20.499 -312.999h10c36.667 140.667 101 289.334 193 446.001c92 156 138 295.333 138 418zM762.001 622.997c0 -137.333 -68.333 -319.331 -205 -545.998s-205 -380.667 -205 -462h-90
c-0.666992 183.333 -15.667 348.666 -45 495.999l-42 222.5l-39 222.5c-44 318.667 -69 566.334 -75 743.001v5c0 112 17.5 194.333 52.5 247s91.167 79 168.5 79c70.667 0 124.667 -40.667 162 -122c29.333 81.333 80.333 122 153 122c64 0 111.167 -20.333 141.5 -61
s45.5 -105.334 45.5 -194.001v-160h-74v158c0 74 -11 123.667 -33 149s-51.667 38 -89 38c-32.667 0 -59.167 -16.5 -79.5 -49.5s-30.5 -88.167 -30.5 -165.5v-164h-73v166c0 74.667 -8.66699 128.667 -26 162c-17.333 34 -51 51 -101 51c-40.667 0 -72.334 -17 -95.001 -51
c-20.667 -30.667 -31 -95.334 -31 -194.001v-14c0.666992 -42 1.83398 -83.833 3.50098 -125.5s4.16699 -84.5 7.5 -128.5c3.33301 -42.667 6.83301 -82.334 10.5 -119.001l10.5 -101h10c66.667 82 147.667 123 243 123c104.667 0 185 -30.667 241 -92
s84 -139.666 84 -234.999z" />
    <glyph glyph-name="uni10ED" unicode="&#x10ed;" horiz-adv-x="780" 
d="M459 727c-76.667 88.667 -133.667 133 -171 133c-90.667 0 -136 -52.667 -136 -158c0 -100.667 45.333 -151 136 -151c38.667 0 95.667 43 171 129v47zM690 444c-16.667 24.667 -33.834 46.999 -51.501 66.999s-34.667 37.667 -51 53s-31.5 28.666 -45.5 39.999
s-26 20.666 -36 27.999h-19v-56c8.66699 -94.667 51.334 -201.334 128.001 -320.001c76.667 -116.667 115 -227 115 -331c0 -99.333 -30 -180 -90 -242s-138.333 -93 -235 -93c-97.333 0 -176 31.667 -236 95c-59.333 63.333 -89 143.333 -89 240
c0 109.333 41.667 192.666 125 249.999l36 -68c-44 -41.333 -66 -102 -66 -182c0 -74 22 -135 66 -183c44.667 -48 99.334 -72 164.001 -72c71.333 0 127.666 26 168.999 78c40.667 50.667 61 109.667 61 177c0 94.667 -33.333 192.334 -100 293.001s-104.667 200 -114 298
v36h-9c-60.667 -50.667 -102 -76 -124 -76h-4c-134.667 0 -202 75.333 -202 226v6c0 150 67.333 225 202 225h3c21.333 0 67.333 -27.333 138 -82h10c11.333 48 20 96.167 26 144.5s9 97.833 9 148.5v6c0 78.667 -38 139.667 -114 183c-78 44.667 -117 138.334 -117 281.001
h88c0 -120.667 37.333 -201 112 -241s112 -115 112 -225c0 -69.333 -20 -196.333 -60 -381h16l46.5 33.5l44.5 31.5c14.667 10.667 29.667 24.334 45 41.001s31 36.667 47 60l50 -119c-38.667 -9.33301 -78.667 -23.166 -120 -41.499s-83 -39.166 -125 -62.499v-14l69 -44.5
l56 -34.5c32.667 -20 72.667 -38 120 -54z" />
    <glyph glyph-name="uni10EE" unicode="&#x10ee;" horiz-adv-x="830" 
d="M190 550c0 -94.667 24.332 -171.333 72.999 -230c48.667 -60 103.334 -90 164.001 -90s114.667 30.667 162 92c47.333 63.333 71 139.333 71 228c0 82.667 -22.667 156.667 -68 222s-101 98 -167 98c-67.333 0 -123.333 -32.333 -168 -97
c-44.667 -62.667 -67 -137 -67 -223zM99.999 1610l84 -0.000976562v-789h11c64 86 141.333 129 232 129c88.667 0 164.667 -38.667 228 -116s95 -172 95 -284c0 -109.333 -31.667 -203.666 -95 -282.999c-63.333 -78 -140 -117 -230 -117c-88.667 0 -165 36.667 -229 110
c-64 74 -96 171.333 -96 292v1058z" />
    <glyph glyph-name="uni10EF" unicode="&#x10ef;" horiz-adv-x="722" 
d="M682 313l-45 -63l-248 176l-168 -258c150 -35.333 225 -113.333 225 -234v-2c0 -181.333 -120 -295.333 -360 -342v80c182 46.667 273 133 273 259c0 91.333 -55.333 152.333 -166 183l-74 51l201 310l-280 194l44 67l280 -193l49 75
c72.667 112.667 109.334 192.334 110.001 239.001c0 56.667 -28.667 85 -86 85c-62.667 0 -94.334 -27.333 -95.001 -82h-75c0 101.333 57 152 171 152c110 -1.33301 165 -56.333 165 -165c0 -60.667 -33.333 -143.334 -100 -248.001l-70 -107z" />
    <glyph glyph-name="uni10F0" unicode="&#x10f0;" horiz-adv-x="810" 
d="M730 462c0 -82.667 -28.666 -155.664 -85.999 -218.997c-57.333 -62 -137.333 -93 -240 -93c-104.667 0 -185 32.667 -241 98c-55.333 67.333 -83 134.666 -83 201.999c0 50 14 106.667 42 170l77 -37c-16 -35.333 -24 -80.333 -24 -135c0 -34 20 -79 60 -135
s96.667 -84 170 -84c67.333 0.666992 122.666 24.667 165.999 72c42.667 46.667 64 99 64 157c0 156.667 -117 272 -351 346v66c84.667 -14 156.334 -35.667 215.001 -65c8 -4 16.333 -6 25 -6c15.333 0 31.666 7.66699 48.999 23c24.667 22.667 37 54 37 94
c0 90.667 -109.333 166 -328 226v67c74 -8 135 -24 183 -48c6 -2 11.667 -3 17 -3c18.667 0 37.667 9 57 27c24.667 22.667 37 61 37 115c0 59.333 -55.667 107 -167 143c-111.333 37.333 -167 99.666 -167 186.999h84c0 -58.667 56.333 -104.334 169 -137.001
s169 -96 169 -190c0 -76.667 -33.667 -138.667 -101 -186c90 -59.333 135 -121 135 -185c0 -96 -39.333 -159 -118 -189c100 -89.333 150 -183 150 -281z" />
    <glyph glyph-name="uni10F1" unicode="&#x10f1;" horiz-adv-x="850" 
d="M204 1610l90.002 0.00488281c-72.667 -122.667 -109 -308 -109 -556v-504c0 -100 21 -178.333 63 -235s111.667 -85 209 -85c50 0 97.667 15.667 143 47s68 72 68 122c0 92.667 -66 139 -198 139h-69v61h69c125.333 0 188 41.333 188 124c0 85.333 -66 128 -198 128h-59
v61h59c125.333 0 188 42.667 188 128c0 82 -66 123 -198 123h-49v61h49c125.333 0 188 45 188 135c0 49.333 -23 90.666 -69 123.999c-45.333 33.333 -68 75.666 -68 126.999h74c0 -50.667 24 -93.334 72 -128.001c48.667 -34.667 73 -73.667 73 -117
c0 -82.667 -55 -139.334 -165 -170.001c116.667 -30.667 175 -82.334 175 -155.001c0 -76 -58.333 -129.333 -175 -160c123.333 -29.333 185 -81 185 -155s-58.333 -126.333 -175 -157c123.333 -33.333 185 -90 185 -170c0 -91.333 -31.667 -155.666 -95 -192.999
c-62.667 -36.667 -128.667 -55 -198 -55c-60.667 0 -113.334 9.16699 -158.001 27.5s-81.834 44.666 -111.501 78.999s-51.667 76.333 -66 126s-21.5 106.167 -21.5 169.5v508c0 216.667 34.667 400 104 550z" />
    <glyph glyph-name="uni10F2" unicode="&#x10f2;" horiz-adv-x="850" 
d="M190 595c1.33301 -86.667 23.334 -157.332 66.001 -211.999c42 -54 98.333 -99.333 169 -136c34.667 17.333 66.167 37 94.5 59s53.166 47 74.499 75c43.333 55.333 65.333 126 66 212c0 79.333 -21.667 145.666 -65 198.999c-43.333 52 -100 78 -170 78
c-69.333 0 -126 -26 -170 -78c-43.333 -53.333 -65 -119 -65 -197zM100.001 144.002c120.667 0 201 26.001 241 78.001c-160.667 114 -241 237.667 -241 371c0 110 32 197 96 261s140.667 96 230 96c86 0 161.667 -32 227 -96c64.667 -64 97 -151.333 97 -262
c0 -132.667 -80 -256.334 -240 -371.001c40 -51.333 120 -77 240 -77v-90c-82 0 -189.667 43.667 -323 131c-135.333 -86.667 -243.333 -130 -324 -130h-3v89z" />
    <glyph glyph-name="uni10F3" unicode="&#x10f3;" horiz-adv-x="850" 
d="M750 -75c0 -93.333 -31.668 -172.666 -95.001 -237.999c-62.667 -64.667 -139.334 -97 -230.001 -97c-87.333 0 -163.666 31.667 -228.999 95c-64 62.667 -96 142.667 -96 240c0 101.333 41.667 184.666 125 249.999l29 -66c-42 -39.333 -63 -100.666 -63 -183.999
c0 -66.667 22.333 -125.334 67 -176.001c44.667 -52.667 100.334 -79 167.001 -79c70.667 0 126.667 27 168 81c41.333 53.333 62 111.333 62 174v132c0 85.333 -25 152 -75 200s-113 72 -189 72h-80v77h78c68.667 0 130 34 184 102c54.667 66.667 82 184 82 352h-450v-250
h-75v320h620c0 -290 -85.667 -475 -257 -555v-10c98 -20 165.333 -54.333 202 -103c36.667 -46.667 55 -115 55 -205v-132z" />
    <glyph glyph-name="uni10F4" unicode="&#x10f4;" horiz-adv-x="850" 
d="M750 -75c0 -105.333 -33 -187.336 -99 -246.003c-67.333 -59.333 -142.333 -89 -225 -89c-88 0 -164.333 32.333 -229 97c-64.667 64 -97 143.333 -97 238c0 108.667 41.667 192 125 250l32 -71c-44 -35.333 -66 -95 -66 -179c0 -76 22.667 -137.667 68 -185
c46 -46.667 101.333 -70 166 -70c63.333 0 117.666 23 162.999 69c44.667 44.667 67 106.667 67 186v156c0 104 -22.333 181.333 -67 232c-44 52 -92 78 -144 78h-113v75h114c49.333 0 96.666 27 141.999 81c45.333 55.333 68 161.333 68 318
c-98 -28.667 -168.333 -43 -211 -43c-103.333 0 -186.333 35.333 -249 106c-63.333 71.333 -95 157.333 -95 258c0 110.667 37.333 205.334 112 284.001c74.667 80 165.667 120 273 120v-80c-66 -1.33301 -131.667 -31.666 -197 -90.999c-65.333 -60 -98 -133 -98 -219
c0 -79.333 26.667 -148.666 80 -207.999c52.667 -58 110.334 -87 173.001 -87c100.667 0 203 54.333 307 163v-162c0 -127.333 -14.667 -232.333 -44 -315c-29.333 -80 -87.666 -132.667 -174.999 -158v-10c90.667 -30.667 149.667 -74.334 177 -131.001
c28 -55.333 42 -125.666 42 -210.999v-156z" />
    <glyph glyph-name="uni10F5" unicode="&#x10f5;" horiz-adv-x="950" 
d="M191 1326c0 -82 22.333 -141.333 67 -178s123.667 -55 237 -55h170v219c0 61.333 -23.333 116.333 -70 165c-46 48.667 -102.667 73 -170 73c-64.667 0 -120 -19 -166 -57c-45.333 -38 -68 -93.667 -68 -167zM665 716l-179 -0.000976562
c-108 0 -184.333 -22.333 -229 -67c-44 -44 -66 -103 -66 -177c0 -75.333 22.667 -134.666 68 -177.999c44.667 -42.667 100 -64 166 -64c67.333 0 124 26 170 78c46.667 52.667 70 110 70 172v236zM750 715.999l-0.00195312 -233c0 -110.667 -33 -194 -99 -250
c-65.333 -55.333 -140.666 -83 -225.999 -83c-108.667 0 -190 32 -244 96s-81 139.333 -81 226c0 94.667 29.667 173.667 89 237c60 62 159.333 93 298 93h178v207h-172c-141.333 0 -242.666 27.667 -303.999 83c-59.333 55.333 -89 133.333 -89 234
c0 88 28.333 160.333 85 217c56.667 58 136.667 87 240 87c98 0 176.333 -27.333 235 -82c60 -55.333 90 -134 90 -236v-219h100v-84h-100v-207h100v-86h-100z" />
    <glyph glyph-name="uni10F6" unicode="&#x10f6;" horiz-adv-x="1250" 
d="M1051 550c0 92 -17.667 168.668 -53 230.001c-35.333 60 -79.333 90 -132 90c-60 0 -108 -24 -144 -72c-35.333 -47.333 -53 -106 -53 -176v-156c0 -64.667 18 -120.334 54 -167.001c36.667 -46 85.334 -69 146.001 -69c51.333 0 94.666 29.667 129.999 89
c34.667 58.667 52 135.667 52 231zM401 950.001c101.333 0 176 -54.334 224 -163.001h10c52.667 108.667 128.667 163 228 163c80.667 0 148.667 -39 204 -117c55.333 -79.333 83 -173.666 83 -282.999c0 -108.667 -27.667 -202.667 -83 -282
c-54.667 -78.667 -121.667 -118 -201 -118c-70.667 0 -136.334 34 -197.001 102v-264c0 -152 -23.333 -256.333 -70 -313c-46 -56.667 -104 -85 -174 -85v80c26.667 0 59 20.333 97 61s57 125.334 57 254.001v637c0 70 -16.667 128.667 -50 176c-33.333 48 -77 72 -131 72
c-57.333 0 -106.333 -29.333 -147 -88s-61 -136 -61 -232c0 -88.667 20.667 -164.667 62 -228c42 -61.333 86.333 -92 133 -92v-80c-80 0 -147.333 40 -202 120c-55.333 81.333 -83 175.666 -83 282.999c0 110.667 25.667 204.667 77 282
c50.667 76.667 125.334 115 224.001 115z" />
    <glyph glyph-name="uni10F7" unicode="&#x10f7;" horiz-adv-x="935" 
d="M685 244c98.667 -85.333 148.668 -186.333 150.001 -303c-0.666992 -99.333 -34.667 -182.666 -102 -249.999s-153.333 -101 -258 -101c-116.667 0 -208.667 36.667 -276 110c-66 72.667 -99 164 -99 274c0 154.667 88.667 287 266 397
c177.333 111.333 266 226.666 266 345.999c0 40 -13.667 80.667 -41 122c-27.333 40 -74 60 -140 60c-59.333 0 -104.333 -18 -135 -54c-31.333 -35.333 -47 -69.333 -47 -102c0 -49.333 13.667 -85 41 -107l-53 -78c-44 52 -66 111.333 -66 178
c0 61.333 21.667 117.666 65 168.999c44 52 112.333 78 205 78c85.333 0 148.666 -26.667 189.999 -80c42 -53.333 63 -115 63 -185c0 -139.333 -86.667 -266.666 -260 -381.999c-172.667 -114 -259 -235 -259 -363c0 -79.333 23.333 -149.333 70 -210
c46.667 -62 116.667 -93 210 -93c83.333 0 148.333 29.333 195 88c47.333 59.333 71 121 71 185c0 100.667 -28.667 174 -86 220z" />
    <glyph glyph-name="uni10F8" unicode="&#x10f8;" horiz-adv-x="850" 
d="M100 943l85.002 -0.000976562v-344c0 -73.333 17.333 -136.333 52 -189c35.333 -53.333 94.666 -80 177.999 -80c58 0 109 25 153 75s66 114.667 66 194c0 66.667 -12 123.667 -36 171c-24 46.667 -71.667 108.334 -143 185.001h90c54 -38 96.667 -87.333 128 -148
s47 -129.334 47 -206.001c0 -114 -26.333 -199.333 -79 -256s-128.334 -85 -227.001 -85c-95.333 0 -168.666 35.667 -219.999 107h-9v-442c0 -83.333 23.667 -146.666 71 -189.999s103.666 -65 168.999 -65c49.333 0 101.666 25 156.999 75s83 110 83 180
c0 68.667 -13.667 127.667 -41 177l46 28c53.333 -59.333 80 -127.666 80 -204.999c0 -108.667 -33 -191.334 -99 -248.001c-66 -58 -141.333 -87 -226 -87c-95.333 0 -173.666 28.667 -234.999 86c-60 56.667 -90 139.667 -90 249v1018z" />
    <glyph glyph-name="uni10F9" unicode="&#x10f9;" horiz-adv-x="966" 
d="M776 538c0 108.667 -31.668 193.667 -95.001 255c-63.333 62 -126.666 93 -189.999 93c-86.667 0 -157.667 -35.667 -213 -107c-54.667 -70.667 -82 -151 -82 -241c0 -84.667 29.667 -165.667 89 -243c59.333 -75.333 125.333 -113 198 -113c76.667 0 144.667 34 204 102
c59.333 69.333 89 154 89 254zM99.999 538c0 112 37.666 211.664 112.999 298.997c74.667 86 167.334 129 278.001 129c97.333 0 184 -42.333 260 -127c76.667 -84.667 115 -185 115 -301c0 -118 -36 -219.333 -108 -304c-70.667 -84.667 -161.667 -127 -273 -127
c-104 -76 -156 -166 -156 -270c0 -41.333 16.667 -79.666 50 -114.999c34 -35.333 79.333 -53 136 -53s101.667 15 135 45c32.667 30 49 65.333 49 106c0 49.333 -9.66699 83 -29 101l63 55c35.333 -51.333 53 -101.666 53 -150.999c0 -72.667 -27 -130 -81 -172
s-117.333 -63 -190 -63c-79.333 0 -144.333 23.333 -195 70c-52 46.667 -78 105.334 -78 176.001c0 112 47 205 141 279c-84 35.333 -152.333 87 -205 155c-52 68.667 -78 158 -78 268z" />
    <glyph glyph-name="uni10FA" unicode="&#x10fa;" horiz-adv-x="850" 
d="M615 -4c-59.333 119.333 -122.665 178.998 -189.998 178.998c-66 0 -125.333 -42.333 -178 -127l-57 41c22.667 52.667 75 99.667 157 141c-164.667 108.667 -247 238.334 -247 389.001c0 98.667 28.333 178.334 85 239.001c57.333 61.333 134.666 92 231.999 92
c103.333 0 184.666 -28 243.999 -84s89 -133.333 89 -232c0 -82.667 -30 -153 -90 -211l-53 48c35.333 41.333 53 95 53 161c0 72.667 -22.667 130.667 -68 174c-44.667 42.667 -103 64 -175 64c-64 0 -118 -22.667 -162 -68c-43.333 -45.333 -65 -107.333 -65 -186
c0 -130 62.333 -231.333 187 -304c124.667 -73.333 228.667 -161.333 312 -264z" />
    <glyph glyph-name="uni10FB" unicode="&#x10fb;" horiz-adv-x="813" 
d="M100 298h158v-160h-158v160zM100 967h158v-158h-158v158zM555 628h158v-157h-158v157z" />
    <glyph glyph-name="uni10FC" unicode="&#x10fc;" horiz-adv-x="498" 
d="M345 1120c0 58.667 -12.166 104.333 -36.499 137s-57.5 49 -99.5 49c-38 0 -67.833 -16.833 -89.5 -50.5s-32.834 -81.5 -33.501 -143.5c0 -66 11.5 -117 34.5 -153s54.5 -54 94.5 -54s71.667 18.667 95 56s35 90.333 35 159zM219.001 1376
c34 0 63.834 -6.49902 89.501 -19.499s47 -30.833 64 -53.5s29.833 -49.667 38.5 -81s13 -65.333 13 -102c0 -96 -18.167 -167.667 -54.5 -215s-87.833 -71 -154.5 -71c-139.333 0 -209 94.667 -209 284v330c0 118.667 60 178 180 178h236v-72l-258 2
c-22.667 0 -41.334 -8.33301 -56.001 -25s-22 -38.334 -22 -65.001v-166c19.333 25.333 41 44.333 65 57s46.667 19 68 19z" />
    <glyph glyph-name="figuredash" unicode="&#x2012;" horiz-adv-x="1235" 
d="M1294 530h-1294v105h1294v-105z" />
    <glyph glyph-name="endash" unicode="&#x2013;" horiz-adv-x="1235" 
d="M-14 501v98h1272v-98h-1272z" />
    <glyph glyph-name="emdash" unicode="&#x2014;" horiz-adv-x="2218" 
d="M-24 500v98h2335v-98h-2335z" />
    <glyph glyph-name="quoteleft" unicode="&#x2018;" horiz-adv-x="501" 
d="M358 1599c-50 -55.333 -84.834 -103.999 -104.501 -145.999s-29.5 -81.333 -29.5 -118c0 -8 0.5 -15.833 1.5 -23.5s2.16699 -15.5 3.5 -23.5c4 1.33301 9.33301 2 16 2h10c23.333 0 43.833 -6.83301 61.5 -20.5s26.5 -32.834 26.5 -57.501
c0 -16.667 -2.83301 -31 -8.5 -43s-13 -22 -22 -30s-19.167 -13.833 -30.5 -17.5s-22.333 -5.5 -33 -5.5c-32 0 -57.667 11 -77 33s-29 58.667 -29 110c0 32 4.16699 64.5 12.5 97.5s20.333 65.5 36 97.5s34.834 63.167 57.501 93.5s48 58.5 76 84.5z" />
    <glyph glyph-name="quoteright" unicode="&#x2019;" horiz-adv-x="501" 
d="M143 1149c48.667 56 83.001 104.499 103.001 145.499s30 80.167 30 117.5c0 8 -0.333008 16 -1 24s-1.66699 16 -3 24c-4 -1.33301 -9.33301 -2 -16 -2h-10c-23.333 0 -43.833 6.83301 -61.5 20.5s-26.5 32.834 -26.5 57.501c0 16.667 2.83301 31 8.5 43s13 22 22 30
s19 13.833 30 17.5s22.167 5.5 33.5 5.5c32 0 57.667 -11 77 -33s29 -58.667 29 -110c0 -32 -4.16699 -64.5 -12.5 -97.5s-20.333 -65.5 -36 -97.5s-34.834 -63.167 -57.501 -93.5s-48 -58.5 -76 -84.5z" />
    <glyph glyph-name="quotesinglbase" unicode="&#x201a;" horiz-adv-x="501" 
d="M143 -162c48.667 56 83.001 104.499 103.001 145.499s30 80.167 30 117.5c0 8 -0.333008 16 -1 24s-1.66699 16 -3 24c-4 -1.33301 -9.33301 -2 -16 -2h-10c-23.333 0 -43.833 6.83301 -61.5 20.5s-26.5 32.834 -26.5 57.501c0 16.667 2.83301 31 8.5 43s13 22 22 30
s19 13.833 30 17.5s22.167 5.5 33.5 5.5c32 0 57.667 -11 77 -33s29 -58.667 29 -110c0 -32 -4.16699 -64.5 -12.5 -97.5s-20.333 -65.5 -36 -97.5s-34.834 -63.167 -57.501 -93.5s-48 -58.5 -76 -84.5z" />
    <glyph glyph-name="quotedblleft" unicode="&#x201c;" horiz-adv-x="801" 
d="M658 1599c-50 -55.333 -84.834 -103.999 -104.501 -145.999s-29.5 -81.333 -29.5 -118c0 -8 0.5 -15.833 1.5 -23.5s2.16699 -15.5 3.5 -23.5c4 1.33301 9.33301 2 16 2h10c23.333 0 43.833 -6.83301 61.5 -20.5s26.5 -32.834 26.5 -57.501
c0 -16.667 -2.83301 -31 -8.5 -43s-13 -22 -22 -30s-19.167 -13.833 -30.5 -17.5s-22.333 -5.5 -33 -5.5c-32 0 -57.667 11 -77 33s-29 58.667 -29 110c0 32 4.16699 64.5 12.5 97.5s20.333 65.5 36 97.5s34.834 63.167 57.501 93.5s48 58.5 76 84.5zM357.999 1599
c-50 -55.333 -84.834 -103.999 -104.501 -145.999s-29.5 -81.333 -29.5 -118c0 -8 0.5 -15.833 1.5 -23.5s2.16699 -15.5 3.5 -23.5c4 1.33301 9.33301 2 16 2h10c23.333 0 43.833 -6.83301 61.5 -20.5s26.5 -32.834 26.5 -57.501c0 -16.667 -2.83301 -31 -8.5 -43
s-13 -22 -22 -30s-19.167 -13.833 -30.5 -17.5s-22.333 -5.5 -33 -5.5c-32 0 -57.667 11 -77 33s-29 58.667 -29 110c0 32 4.16699 64.5 12.5 97.5s20.333 65.5 36 97.5s34.834 63.167 57.501 93.5s48 58.5 76 84.5z" />
    <glyph glyph-name="quotedblright" unicode="&#x201d;" horiz-adv-x="801" 
d="M143 1149c48.667 56 83.001 104.499 103.001 145.499s30 80.167 30 117.5c0 8 -0.333008 16 -1 24s-1.66699 16 -3 24c-4 -1.33301 -9.33301 -2 -16 -2h-10c-23.333 0 -43.833 6.83301 -61.5 20.5s-26.5 32.834 -26.5 57.501c0 16.667 2.83301 31 8.5 43s13 22 22 30
s19 13.833 30 17.5s22.167 5.5 33.5 5.5c32 0 57.667 -11 77 -33s29 -58.667 29 -110c0 -32 -4.16699 -64.5 -12.5 -97.5s-20.333 -65.5 -36 -97.5s-34.834 -63.167 -57.501 -93.5s-48 -58.5 -76 -84.5zM443.001 1149c48.667 56 83.001 104.499 103.001 145.499
s30 80.167 30 117.5c0 8 -0.333008 16 -1 24s-1.66699 16 -3 24c-4 -1.33301 -9.33301 -2 -16 -2h-10c-23.333 0 -43.833 6.83301 -61.5 20.5s-26.5 32.834 -26.5 57.501c0 16.667 2.83301 31 8.5 43s13 22 22 30s19 13.833 30 17.5s22.167 5.5 33.5 5.5
c32 0 57.667 -11 77 -33s29 -58.667 29 -110c0 -32 -4.16699 -64.5 -12.5 -97.5s-20.333 -65.5 -36 -97.5s-34.834 -63.167 -57.501 -93.5s-48 -58.5 -76 -84.5z" />
    <glyph glyph-name="quotedblbase" unicode="&#x201e;" horiz-adv-x="801" 
d="M143 -162c48.667 56 83.001 104.499 103.001 145.499s30 80.167 30 117.5c0 8 -0.333008 16 -1 24s-1.66699 16 -3 24c-4 -1.33301 -9.33301 -2 -16 -2h-10c-23.333 0 -43.833 6.83301 -61.5 20.5s-26.5 32.834 -26.5 57.501c0 16.667 2.83301 31 8.5 43s13 22 22 30
s19 13.833 30 17.5s22.167 5.5 33.5 5.5c32 0 57.667 -11 77 -33s29 -58.667 29 -110c0 -32 -4.16699 -64.5 -12.5 -97.5s-20.333 -65.5 -36 -97.5s-34.834 -63.167 -57.501 -93.5s-48 -58.5 -76 -84.5zM443.001 -162.001c48.667 56 83.001 104.499 103.001 145.499
s30 80.167 30 117.5c0 8 -0.333008 16 -1 24s-1.66699 16 -3 24c-4 -1.33301 -9.33301 -2 -16 -2h-10c-23.333 0 -43.833 6.83301 -61.5 20.5s-26.5 32.834 -26.5 57.501c0 16.667 2.83301 31 8.5 43s13 22 22 30s19 13.833 30 17.5s22.167 5.5 33.5 5.5
c32 0 57.667 -11 77 -33s29 -58.667 29 -110c0 -32 -4.16699 -64.5 -12.5 -97.5s-20.333 -65.5 -36 -97.5s-34.834 -63.167 -57.501 -93.5s-48 -58.5 -76 -84.5z" />
    <glyph glyph-name="dagger" unicode="&#x2020;" horiz-adv-x="1085" 
d="M592 1380v-454l381 -100v-82l-389 100v-946h-90v954l-381 -100v82l389 100v446h90z" />
    <glyph glyph-name="bullet" unicode="&#x2022;" horiz-adv-x="1024" 
d="M348 717c0 22.667 4.33301 43.834 13 63.501s20.5 37 35.5 52s32.333 26.833 52 35.5s40.834 13 63.501 13s43.834 -4.33301 63.501 -13s37 -20.5 52 -35.5s26.833 -32.333 35.5 -52s13 -40.834 13 -63.501s-4.33301 -43.834 -13 -63.501s-20.5 -37 -35.5 -52
s-32.333 -26.833 -52 -35.5s-40.834 -13 -63.501 -13s-43.834 4.33301 -63.501 13s-37 20.5 -52 35.5s-26.833 32.333 -35.5 52s-13 40.834 -13 63.501z" />
    <glyph glyph-name="ellipsis" unicode="&#x2026;" horiz-adv-x="1855" 
d="M338 154v161h164v-161h-164zM872 154v161h168v-161h-168zM1411 154v161h166v-161h-166z" />
    <glyph glyph-name="guilsinglleft" unicode="&#x2039;" horiz-adv-x="737" 
d="M283 610l299 -458h-97l-348 458l348 465h99z" />
    <glyph glyph-name="guilsinglright" unicode="&#x203a;" horiz-adv-x="737" 
d="M455 616l-301 459h96l338 -454l-338 -469h-96z" />
    <glyph glyph-name="Euro" unicode="&#x20ac;" horiz-adv-x="1085" 
d="M1067 249c-17.333 -12.667 -37 -24.998 -59 -36.998s-46.667 -22.5 -74 -31.5s-57.333 -16.333 -90 -22s-68.334 -8.5 -107.001 -8.5c-83.333 0 -158.166 14.167 -224.499 42.5s-124.5 67.5 -174.5 117.5s-89.833 108.667 -119.5 176s-49.167 140.333 -58.5 219h-133v76
h127v27c0 39.333 2 77.666 6 114.999h-133v75h145c12.667 74.667 35 143.5 67 206.5s73 118.5 123 166.5c51.333 48.667 110 87.5 176 116.5s142 43.5 228 43.5c34 0 65.5 -2.33301 94.5 -7s55.333 -10.5 79 -17.5s44.5 -14.667 62.5 -23s33.667 -16.5 47 -24.5l-31 -78
c-32 19.333 -70.333 35.5 -115 48.5s-93 19.5 -145 19.5c-68.667 0 -129 -11 -181 -33s-99 -52 -141 -90c-42 -40 -76.667 -88.5 -104 -145.5s-47.333 -117.833 -60 -182.5h691v-75h-703c-4 -35.333 -6 -71 -6 -107v-35h709v-76h-703
c9.33301 -72.667 27.333 -137.334 54 -194.001s60 -104.334 100 -143.001c88 -88 199.333 -132 334 -132c33.333 0 64.666 2.83301 93.999 8.5s56.333 12.667 81 21s46.834 17.333 66.501 27s36.5 18.834 50.5 27.501z" />
    <glyph glyph-name="trademark" unicode="&#x2122;" horiz-adv-x="1303" 
d="M1200 993l-29 379c-1.33301 16.667 -2.33301 35 -3 55s-1.66699 41.333 -3 64h-4c-3.33301 -8 -7 -17.5 -11 -28.5l-13 -34.5l-13 -36l-6 -17.5l-6 -16.5l-139 -357h-88l-142 367l-22 61.5l-23 61.5h-4c0 -18.667 -0.333008 -37.834 -1 -57.501
s-1.66699 -40.167 -3 -61.5l-28 -379h-78l49 557h112l144 -360c8 -20.667 15.333 -40.667 22 -60l19 -57h4c7.33301 19.333 14.333 39.333 21 60s12.667 38.334 18 53.001l143 364h113l53 -557h-82zM557 1550v-65h-205v-492h-76v492h-204v65h485z" />
    <glyph glyph-name=".null" horiz-adv-x="0" 
 />
    <glyph glyph-name="nonmarkingreturn" horiz-adv-x="643" 
 />
    <glyph glyph-name="ring" horiz-adv-x="770" 
d="M199 1430c0 25.333 5.33301 49.667 16 73s25.334 44 44.001 62s40.5 32.333 65.5 43s52.167 16 81.5 16c27.333 0 53.5 -5.33301 78.5 -16s47 -25 66 -43s34 -38.833 45 -62.5s16.5 -48.834 16.5 -75.501c0 -28 -5.5 -54.167 -16.5 -78.5s-25.833 -45.666 -44.5 -63.999
s-40.334 -32.833 -65.001 -43.5s-50.667 -16 -78 -16c-31.333 0 -59.833 5.5 -85.5 16.5s-47.667 25.667 -66 44s-32.5 40 -42.5 65s-15 51.5 -15 79.5zM274 1430c0.666992 -14 3.49805 -28.5 8.49805 -43.5s13 -28.667 24 -41s25.5 -22.5 43.5 -30.5s40 -12 66 -12
c20.667 0 38.667 3.83301 54 11.5s28 17.5 38 29.5s17.333 25.333 22 40s7 29 7 43c0 14.667 -2.66699 29.167 -8 43.5s-13.166 27.333 -23.499 39s-23.666 21 -39.999 28s-35.5 10.5 -57.5 10.5c-23.333 0 -43.333 -3.33301 -60 -10s-30.5 -15.5 -41.5 -26.5
s-19.167 -23.667 -24.5 -38s-8 -28.833 -8 -43.5z" />
    </font>
</defs>
</svg>
